<?xml version="1.0" standalone="no"?>
<!DOCTYPE svg PUBLIC "-//W3C//DTD SVG 1.1//EN" "http://www.w3.org/Graphics/SVG/1.1/DTD/svg11.dtd" >
<svg xmlns="http://www.w3.org/2000/svg" xmlns:xlink="http://www.w3.org/1999/xlink" version="1.1">
<metadata>
Created by FontForge 20201107 at Thu Dec  5 17:18:06 2019
 By 
Copyright 2017 The Inria Sans Project Authors (https://github.com/BlackFoundryCom/InriaFonts)
</metadata>
<defs>
<font id="InriaSans-Bold" horiz-adv-x="588" >
  <font-face 
    font-family="Inria Sans"
    font-weight="700"
    font-stretch="normal"
    units-per-em="1000"
    panose-1="0 0 0 0 0 0 0 0 0 0"
    ascent="800"
    descent="-200"
    x-height="507"
    cap-height="680"
    bbox="-184 -256 1292 978"
    underline-thickness="50"
    underline-position="-100"
    unicode-range="U+000D-FB04"
  />
<missing-glyph horiz-adv-x="636" 
d="M94 0v680h448v-680h-448zM214 115h208v450h-208v-450z" />
    <glyph glyph-name="ff" unicode="ff" horiz-adv-x="684" 
d="M406 0v407h-192v-407h-115v407h-82v100h82v50q0 80 40.5 131.5t134.5 51.5q28 0 53 -4.5t47 -11.5l-30 -100q-34 8 -62 8q-32 0 -50 -16t-18 -59v-50h192v53q0 83 42 136.5t135 53.5q34 0 70 -7t65 -18l-28 -99q-48 16 -86 16q-40 0 -61.5 -17.5t-21.5 -64.5v-53h158
v-100h-158v-407h-115z" />
    <glyph glyph-name="fi" unicode="fi" horiz-adv-x="600" 
d="M214 550v-43h307v-507h-115v407h-192v-407h-115v407h-82v100h82v43q0 59 21 104t67.5 70.5t121.5 25.5q41 0 88 -9.5t98 -34.5l-42 -94q-45 17 -79 23.5t-62 6.5q-46 0 -72 -19.5t-26 -72.5z" />
    <glyph glyph-name="fl" unicode="fl" horiz-adv-x="616" 
d="M584 101v-106h-28q-57 0 -87.5 22t-41.5 56t-11 70v485q-53 14 -101 14q-49 0 -75 -19.5t-26 -72.5v-43h138v-100h-138v-407h-115v407h-82v100h82v43q0 59 21 104t68 70.5t124 25.5q47 0 102.5 -12t116.5 -43v-552q0 -15 7.5 -28.5t29.5 -13.5h16z" />
    <glyph glyph-name="ffi" unicode="ffi" horiz-adv-x="907" 
d="M406 0v407h-192v-407h-115v407h-82v100h82v50q0 80 40.5 131.5t134.5 51.5q28 0 53 -4.5t47 -11.5l-30 -100q-34 8 -62 8q-32 0 -50 -16t-18 -59v-50h192v43q0 59 21 104t67.5 70.5t121.5 25.5q41 0 88 -9.5t98 -34.5l-42 -94q-45 17 -79 23.5t-62 6.5q-46 0 -72 -19.5
t-26 -72.5v-43h307v-507h-115v407h-192v-407h-115z" />
    <glyph glyph-name="ffl" unicode="ffl" horiz-adv-x="923" 
d="M214 557v-50h192v43q0 59 21 104t68 70.5t124 25.5q47 0 102.5 -12t116.5 -43v-552q0 -15 7.5 -28.5t29.5 -13.5h16v-106h-28q-57 0 -87.5 22t-41.5 56t-11 70v485q-53 14 -101 14q-49 0 -75 -19.5t-26 -72.5v-43h138v-100h-138v-407h-115v407h-192v-407h-115v407h-82
v100h82v50q0 80 40.5 131.5t134.5 51.5q28 0 53 -4.5t47 -11.5l-30 -100q-34 8 -62 8q-32 0 -50 -16t-18 -59z" />
    <glyph glyph-name="ft" unicode="ft" horiz-adv-x="717" 
d="M416 179v228h-202v-407h-115v407h-82v100h82v43q0 59 21 104t68 70.5t124 25.5q47 0 102.5 -12t116.5 -43v-188h158v-100h-158v-228q0 -46 17.5 -63.5t50.5 -17.5q16 0 34.5 3.5t41.5 12.5l29 -97q-26 -12 -60 -19.5t-69 -7.5q-58 0 -93 24t-50.5 67t-15.5 98zM214 550
v-43h202v121q-53 14 -101 14q-49 0 -75 -19.5t-26 -72.5z" />
    <glyph glyph-name="fft" unicode="fft" horiz-adv-x="1024" 
d="M214 557v-50h192v43q0 59 21 104t68 70.5t124 25.5q47 0 102.5 -12t116.5 -43v-188h158v-100h-158v-228q0 -46 17.5 -63.5t50.5 -17.5q16 0 34.5 3.5t41.5 12.5l29 -97q-26 -12 -60 -19.5t-69 -7.5q-58 0 -93 24t-50.5 67t-15.5 98v228h-202v-407h-115v407h-192v-407
h-115v407h-82v100h82v50q0 80 40.5 131.5t134.5 51.5q28 0 53 -4.5t47 -11.5l-30 -100q-34 8 -62 8q-32 0 -50 -16t-18 -59zM521 550v-43h202v121q-53 14 -101 14q-49 0 -75 -19.5t-26 -72.5z" />
    <glyph glyph-name="fb" unicode="fb" horiz-adv-x="901" 
d="M847 227q0 -109 -54 -173t-158 -64q-108 0 -219 60v578q-53 14 -101 14q-49 0 -75 -19.5t-26 -72.5v-43h138v-100h-138v-407h-115v407h-82v100h82v43q0 59 21 104t68 70.5t124 25.5q47 0 102.5 -12t116.5 -43v-255q46 46 79 61.5t68 15.5q80 0 124.5 -62t44.5 -174v-54z
M647 410q-24 0 -50.5 -14t-65.5 -55v-227q27 -11 49.5 -16t44.5 -5q56 0 80 36t24 98v54q0 67 -21.5 98t-60.5 31z" />
    <glyph glyph-name="ffb" unicode="ffb" horiz-adv-x="1208" 
d="M214 557v-50h192v43q0 59 21 104t68 70.5t124 25.5q47 0 102.5 -12t116.5 -43v-255q46 46 79 61.5t68 15.5q80 0 124.5 -62t44.5 -174v-54q0 -109 -54 -173t-158 -64q-108 0 -219 60v578q-53 14 -101 14q-49 0 -75 -19.5t-26 -72.5v-43h138v-100h-138v-407h-115v407h-192
v-407h-115v407h-82v100h82v50q0 80 40.5 131.5t134.5 51.5q28 0 53 -4.5t47 -11.5l-30 -100q-34 8 -62 8q-32 0 -50 -16t-18 -59zM954 410q-24 0 -50.5 -14t-65.5 -55v-227q27 -11 49.5 -16t44.5 -5q56 0 80 36t24 98v54q0 67 -21.5 98t-60.5 31z" />
    <glyph glyph-name="fff" unicode="fff" horiz-adv-x="991" 
d="M406 0v407h-192v-407h-115v407h-82v100h82v50q0 80 40.5 131.5t134.5 51.5q28 0 53 -4.5t47 -11.5l-30 -100q-34 8 -62 8q-32 0 -50 -16t-18 -59v-50h192v50q0 80 40.5 131.5t134.5 51.5q28 0 53 -4.5t47 -11.5l-30 -100q-34 8 -62 8q-32 0 -50 -16t-18 -59v-50h192v53
q0 83 42 136.5t135 53.5q34 0 70 -7t65 -18l-28 -99q-48 16 -86 16q-40 0 -61.5 -17.5t-21.5 -64.5v-53h158v-100h-158v-407h-115v407h-192v-407h-115z" />
    <glyph glyph-name="fh" unicode="fh" horiz-adv-x="921" 
d="M352 407h-138v-407h-115v407h-82v100h82v43q0 59 21 104t68 70.5t124 25.5q47 0 102.5 -12t116.5 -43v-251q46 39 86 56t82 17q73 0 111 -46.5t38 -130.5v-340h-115v326q0 84 -69 84q-25 0 -57 -12t-76 -47v-351h-115v628q-53 14 -101 14q-49 0 -75 -19.5t-26 -72.5v-43
h138v-100z" />
    <glyph glyph-name="ffh" unicode="ffh" horiz-adv-x="1228" 
d="M406 0v407h-192v-407h-115v407h-82v100h82v50q0 80 40.5 131.5t134.5 51.5q28 0 53 -4.5t47 -11.5l-30 -100q-34 8 -62 8q-32 0 -50 -16t-18 -59v-50h192v43q0 59 21 104t68 70.5t124 25.5q47 0 102.5 -12t116.5 -43v-251q46 39 86 56t82 17q73 0 111 -46.5t38 -130.5
v-340h-115v326q0 84 -69 84q-25 0 -57 -12t-76 -47v-351h-115v628q-53 14 -101 14q-49 0 -75 -19.5t-26 -72.5v-43h138v-100h-138v-407h-115z" />
    <glyph glyph-name="fj" unicode="fj" horiz-adv-x="600" 
d="M214 550v-43h307v-511q0 -57 -18.5 -107t-66 -81t-134.5 -31v108q50 0 77 24t27 87v411h-192v-407h-115v407h-82v100h82v43q0 59 21 104t67.5 70.5t121.5 25.5q41 0 88 -9.5t98 -34.5l-42 -94q-45 17 -79 23.5t-62 6.5q-46 0 -72 -19.5t-26 -72.5z" />
    <glyph glyph-name="ffj" unicode="ffj" horiz-adv-x="907" 
d="M521 550v-43h307v-511q0 -57 -18.5 -107t-66 -81t-134.5 -31v108q50 0 77 24t27 87v411h-192v-407h-115v407h-192v-407h-115v407h-82v100h82v50q0 80 40.5 131.5t134.5 51.5q28 0 53 -4.5t47 -11.5l-30 -100q-34 8 -62 8q-32 0 -50 -16t-18 -59v-50h192v43q0 59 21 104
t67.5 70.5t121.5 25.5q41 0 88 -9.5t98 -34.5l-42 -94q-45 17 -79 23.5t-62 6.5q-46 0 -72 -19.5t-26 -72.5z" />
    <glyph glyph-name="fk" unicode="fk" horiz-adv-x="869" 
d="M352 407h-138v-407h-115v407h-82v100h82v43q0 59 21 104t68 70.5t124 25.5q47 0 102.5 -12t116.5 -43v-417q57 58 98.5 111.5t76.5 117.5h132q-33 -60 -72 -114t-86 -109l178 -284h-139l-125 211q-30 -30 -63 -60v-151h-115v628q-53 14 -101 14q-49 0 -75 -19.5
t-26 -72.5v-43h138v-100z" />
    <glyph glyph-name="ffk" unicode="ffk" horiz-adv-x="1176" 
d="M406 0v407h-192v-407h-115v407h-82v100h82v50q0 80 40.5 131.5t134.5 51.5q28 0 53 -4.5t47 -11.5l-30 -100q-34 8 -62 8q-32 0 -50 -16t-18 -59v-50h192v43q0 59 21 104t68 70.5t124 25.5q47 0 102.5 -12t116.5 -43v-417q57 58 98.5 111.5t76.5 117.5h132
q-33 -60 -72 -114t-86 -109l178 -284h-139l-125 211q-30 -30 -63 -60v-151h-115v628q-53 14 -101 14q-49 0 -75 -19.5t-26 -72.5v-43h138v-100h-138v-407h-115z" />
    <glyph glyph-name=".notdef" horiz-adv-x="636" 
d="M94 0v680h448v-680h-448zM214 115h208v450h-208v-450z" />
    <glyph glyph-name=".null" horiz-adv-x="0" 
 />
    <glyph glyph-name="nonmarkingreturn" horiz-adv-x="333" 
 />
    <glyph glyph-name="NULL" horiz-adv-x="0" 
 />
    <glyph glyph-name="NULL" horiz-adv-x="0" 
 />
    <glyph glyph-name="CR" unicode="&#xd;" horiz-adv-x="200" 
 />
    <glyph glyph-name="space" unicode=" " horiz-adv-x="200" 
 />
    <glyph glyph-name="exclam" unicode="!" horiz-adv-x="281" 
d="M186 199h-90l-12 261v220h115v-220zM201 0h-121v119h121v-119z" />
    <glyph glyph-name="quotedbl" unicode="&#x22;" horiz-adv-x="386" 
d="M139 388h-67l-20 196v96h107v-96zM314 388h-67l-20 196v96h107v-96z" />
    <glyph glyph-name="numbersign" unicode="#" horiz-adv-x="654" 
d="M296 0l57 185h-146l-57 -185h-95l57 185h-97v87h123l42 136h-95v87h121l57 185h95l-57 -185h146l57 185h95l-57 -185h97v-87h-123l-42 -136h95v-87h-121l-57 -185h-95zM233 272h146l42 136h-146z" />
    <glyph glyph-name="dollar" unicode="$" horiz-adv-x="518" 
d="M480 191q0 -76 -41 -128t-127 -67v-141h-110v137q-39 4 -80.5 15.5t-89.5 33.5l37 103q56 -24 95.5 -33.5t77.5 -9.5q116 0 116 86q0 35 -17.5 55t-64.5 35l-82 27q-147 48 -147 193q0 71 38 122t117 66v140h110v-138q35 -4 70 -14t73 -27l-37 -103q-48 19 -81.5 27.5
t-68.5 8.5q-46 0 -72.5 -16.5t-26.5 -59.5q0 -32 18.5 -52.5t61.5 -34.5l82 -27q74 -25 111.5 -72.5t37.5 -125.5z" />
    <glyph glyph-name="percent" unicode="%" horiz-adv-x="732" 
d="M310 546v-31q0 -65 -34.5 -102.5t-102.5 -37.5t-102.5 37.5t-34.5 102.5v31q0 65 34.5 102t102.5 37t102.5 -37t34.5 -102zM485 680h90l-329 -680h-90zM230 546q0 64 -57 64q-56 0 -56 -64v-31q0 -64 56 -64q57 0 57 64v31zM696 166v-31q0 -65 -34.5 -102.5t-102.5 -37.5
t-102.5 37.5t-34.5 102.5v31q0 65 34.5 102t102.5 37t102.5 -37t34.5 -102zM616 166q0 64 -57 64q-56 0 -56 -64v-31q0 -64 56 -64q57 0 57 64v31z" />
    <glyph glyph-name="ampersand" unicode="&#x26;" horiz-adv-x="561" 
d="M237 96q40 0 66 19t32 51.5t-15 72.5l92 56l152 -295h-125l-44 99q-14 -48 -57.5 -78.5t-111.5 -30.5q-89 0 -139.5 50t-50.5 129q0 56 29.5 105t100.5 95q-49 38 -71 76.5t-22 82.5q0 45 21 82t61.5 58.5t99.5 21.5q85 0 135 -44t50 -122q0 -47 -18.5 -81t-50.5 -61.5
t-75 -54.5l-70 -45q-45 -29 -59 -56t-14 -52q0 -40 23.5 -59t60.5 -19zM184 522q0 -22 12.5 -49t43.5 -55q35 23 53 38.5t25 29.5t7 31q0 36 -20 52.5t-49 16.5q-30 0 -51 -16t-21 -48z" />
    <glyph glyph-name="quotesingle" unicode="'" horiz-adv-x="211" 
d="M139 388h-67l-20 196v96h107v-96z" />
    <glyph glyph-name="parenleft" unicode="(" horiz-adv-x="333" 
d="M49 317q0 116 50.5 225t152.5 208l80 -75q-85 -87 -125 -173.5t-40 -184.5v-37q0 -97 40 -184t125 -174l-80 -75q-102 99 -152.5 208t-50.5 225v37z" />
    <glyph glyph-name="parenright" unicode=")" horiz-adv-x="333" 
d="M284 280q0 -116 -50.5 -225t-152.5 -208l-80 75q86 87 125.5 174t39.5 184v37q0 98 -39.5 184.5t-125.5 173.5l80 75q102 -99 152.5 -208t50.5 -225v-37z" />
    <glyph glyph-name="asterisk" unicode="*" horiz-adv-x="407" 
d="M354 366l-77 -56l-29 41l-43 95l-44 -96l-29 -40l-77 56l29 40l78 70l-105 12l-48 16l30 90l47 -15l91 -52l-21 103v50h95v-50l-21 -102l91 52l48 15l29 -90l-47 -16l-105 -12l79 -70z" />
    <glyph glyph-name="plus" unicode="+" 
d="M501 255h-156v-160h-102v160h-156v100h156v160h102v-160h156v-100z" />
    <glyph glyph-name="comma" unicode="," horiz-adv-x="211" 
d="M161 119v-19q0 -84 -19 -160.5t-73 -162.5l-72 39q22 41 33 83.5t15 95.5t4 124h112z" />
    <glyph glyph-name="hyphen" unicode="-" horiz-adv-x="404" 
d="M50 265v100h304v-100h-304z" />
    <glyph glyph-name="period" unicode="." horiz-adv-x="211" 
d="M166 0h-121v119h121v-119z" />
    <glyph glyph-name="slash" unicode="/" horiz-adv-x="394" 
d="M285 740h118l-324 -883h-118z" />
    <glyph glyph-name="zero" unicode="0" horiz-adv-x="610" 
d="M545 412v-143q0 -130 -61 -204.5t-179 -74.5t-179 74.5t-61 204.5v143q0 130 61 204t179 74t179 -74t61 -204zM424 412q0 167 -119 167q-61 0 -90 -42t-29 -125v-143q0 -83 29 -125.5t90 -42.5q119 0 119 168v143z" />
    <glyph glyph-name="one" unicode="1" horiz-adv-x="377" 
d="M10 583l173 97h100v-680h-118v548l-102 -56z" />
    <glyph glyph-name="two" unicode="2" horiz-adv-x="505" 
d="M452 0h-412v95q0 72 19 120.5t51 80t70 50.5l68 34q39 20 63.5 42.5t24.5 58.5v18q0 37 -25.5 58.5t-81.5 21.5q-34 0 -68.5 -10t-83.5 -28l-37 103q56 25 102.5 35.5t90.5 10.5q81 0 129.5 -26t70 -69.5t21.5 -95.5v-18q0 -54 -21.5 -92t-56.5 -64t-76 -46l-68 -34
q-37 -18 -54.5 -50t-19.5 -82h294v-113z" />
    <glyph glyph-name="three" unicode="3" horiz-adv-x="501" 
d="M446 185q0 -53 -22 -97.5t-70.5 -71t-129.5 -26.5q-46 0 -95.5 11t-108.5 37l37 103q53 -19 89.5 -29.5t73.5 -10.5q53 0 80.5 21.5t27.5 67.5v14q0 38 -23.5 61.5t-72.5 23.5h-106v108h106q47 0 69 22.5t22 58.5v14q0 46 -25.5 66.5t-74.5 20.5q-35 0 -70.5 -9.5
t-85.5 -28.5l-37 103q56 26 104 36t93 10q77 0 124 -26t68.5 -70t21.5 -97v-14q0 -47 -23.5 -82.5t-61.5 -56.5q41 -22 65.5 -58.5t24.5 -86.5v-14z" />
    <glyph glyph-name="four" unicode="4" horiz-adv-x="527" 
d="M505 154h-71v-154h-116v154h-292v97q45 70 89.5 142.5t83.5 145t64 141.5h131q-37 -102 -100 -209.5t-130 -209.5h154v103h116v-103h71v-107z" />
    <glyph glyph-name="five" unicode="5" horiz-adv-x="519" 
d="M67 351l20 329h348v-113h-242l-9 -150q35 9 75 9q99 0 155 -51.5t56 -151.5v-27q0 -56 -23 -103t-73.5 -75t-133.5 -28q-46 0 -95.5 11t-108.5 37l37 103q53 -21 89.5 -30.5t73.5 -9.5q56 0 84.5 23t28.5 72v27q0 44 -25.5 70t-81.5 26q-25 0 -52 -6.5t-58 -18.5z" />
    <glyph glyph-name="six" unicode="6" horiz-adv-x="569" 
d="M523 204q0 -61 -27 -109.5t-76.5 -76.5t-119.5 -28q-111 0 -173 75t-62 206v141q0 140 66 209t186 69q42 0 87.5 -10t100.5 -36l-43 -103q-45 21 -79 29.5t-63 8.5q-63 0 -101.5 -37.5t-38.5 -129.5v-36q35 31 72.5 46t74.5 15q60 0 104 -27t68 -75t24 -111v-20zM180 271
q0 -86 32 -128t90 -42q50 0 77 28.5t27 74.5v20q0 47 -25 76t-72 29q-71 0 -129 -54v-4z" />
    <glyph glyph-name="seven" unicode="7" horiz-adv-x="464" 
d="M441 577q-68 -144 -115.5 -288.5t-75.5 -288.5h-126q28 142 74 284t113 283h-292v113h422v-103z" />
    <glyph glyph-name="eight" unicode="8" horiz-adv-x="560" 
d="M509 185q0 -55 -25.5 -99t-77.5 -70t-132 -26q-79 0 -128 24.5t-72 64.5t-23 89t23 90.5t76 76.5q-42 28 -64.5 69t-22.5 96q0 53 25 96t73 68.5t115 25.5q72 0 121 -24t73.5 -64.5t24.5 -90.5q0 -44 -20.5 -82.5t-68.5 -71.5q103 -58 103 -172zM267 408l49 -15
q34 29 47.5 53.5t13.5 50.5q0 40 -25.5 63.5t-72.5 23.5t-72.5 -23t-25.5 -63q0 -63 86 -90zM169 185q0 -40 29 -64.5t82 -24.5q52 0 81.5 24t29.5 64q0 30 -21.5 54.5t-73.5 40.5l-54 17q-37 -30 -55 -56t-18 -55z" />
    <glyph glyph-name="nine" unicode="9" horiz-adv-x="569" 
d="M504 268q0 -140 -66 -209t-186 -69q-42 0 -87 10t-101 36l43 103q45 -21 79.5 -29.5t62.5 -8.5q63 0 101.5 38t38.5 129v36q-34 -31 -71.5 -46t-75.5 -15q-59 0 -103.5 27t-68.5 75t-24 111v20q0 56 27 105t77 79t119 30q111 0 173 -75t62 -206v-141zM163 456
q0 -46 25.5 -75.5t71.5 -29.5q71 0 129 54v4q0 86 -31.5 128t-90.5 42q-49 0 -76.5 -32t-27.5 -71v-20z" />
    <glyph glyph-name="colon" unicode=":" horiz-adv-x="211" 
d="M166 388h-121v119h121v-119zM166 0h-121v119h121v-119z" />
    <glyph glyph-name="semicolon" unicode=";" horiz-adv-x="211" 
d="M166 388h-121v119h121v-119zM161 119v-19q0 -84 -19 -160.5t-73 -162.5l-72 39q22 41 33 83.5t15 95.5t4 124h112z" />
    <glyph glyph-name="less" unicode="&#x3c;" 
d="M501 213v-110l-414 168v81l414 165v-106l-260 -98z" />
    <glyph glyph-name="equal" unicode="=" 
d="M87 364v100h414v-100h-414zM87 165v100h414v-100h-414z" />
    <glyph glyph-name="greater" unicode="&#x3e;" 
d="M501 268l-414 -165v106l260 98l-260 100v110l414 -168v-81z" />
    <glyph glyph-name="question" unicode="?" horiz-adv-x="454" 
d="M204 583q-34 0 -71 -9t-86 -29l-37 99q57 26 107.5 36t94.5 10q77 0 123.5 -23t67.5 -62.5t21 -90.5v-18q0 -53 -16 -91.5t-56 -74.5l-36 -33q-33 -30 -39 -48.5t-6 -40.5v-9h-120v18q0 38 12 70t57 73l37 34q29 27 39 47t10 45v18q0 35 -23 57t-79 22zM272 0h-121v119
h121v-119z" />
    <glyph glyph-name="at" unicode="@" horiz-adv-x="945" 
d="M728 -167q-58 -26 -126 -41t-136 -15q-133 0 -228.5 54t-147 151.5t-51.5 226.5q0 102 32 190t92 153t144 101.5t188 36.5q93 0 170 -30t132.5 -84t85.5 -127t30 -160q0 -85 -30.5 -151.5t-82.5 -104.5t-119 -38q-47 0 -79.5 19t-44.5 59q-46 -49 -84.5 -66t-74.5 -17
q-68 0 -99.5 61.5t-15.5 159.5l7 44q17 104 68.5 158t144.5 54q52 0 102 -18t95 -47l-42 -240q-6 -33 2 -54t34 -21q29 0 55.5 25t43.5 70.5t17 106.5q0 89 -39.5 158t-110 108.5t-165.5 39.5q-108 0 -187.5 -51t-122.5 -138t-43 -197q0 -103 38.5 -178.5t111 -117
t174.5 -41.5q59 0 120 14t112 39zM399 211q-10 -61 1.5 -88.5t39.5 -27.5q23 0 49.5 18.5t58.5 62.5l30 172q-18 8 -33.5 13t-31.5 5q-46 0 -72.5 -30t-34.5 -81z" />
    <glyph glyph-name="A" unicode="A" horiz-adv-x="601" 
d="M456 0l-42 133h-233l-42 -133h-119l227 680h106l228 -680h-125zM246 341l-31 -98h164l-31 98l-50 172z" />
    <glyph glyph-name="B" unicode="B" horiz-adv-x="585" 
d="M94 0v680h207q76 0 120.5 -22t64 -62t19.5 -94v-28q0 -79 -68 -121q48 -19 73 -55t25 -86v-28q0 -55 -20 -96.5t-66 -64.5t-123 -23h-232zM301 570h-87v-170h87q40 0 60.5 18.5t20.5 50.5v33q0 32 -20.5 50t-60.5 18zM326 290h-112v-180h112q42 0 64 20t22 54v33
q0 34 -22 53.5t-64 19.5z" />
    <glyph glyph-name="C" unicode="C" horiz-adv-x="534" 
d="M186 269q0 -73 32 -119.5t105 -46.5q30 0 62.5 8t80.5 27l37 -104q-54 -24 -99.5 -34t-87.5 -10q-84 0 -140.5 36t-84.5 99t-28 144v143q0 81 28 144t84.5 98.5t140.5 35.5q41 0 85 -9.5t96 -32.5l-37 -106q-46 19 -77 27t-60 8q-73 0 -105 -46t-32 -119v-143z" />
    <glyph glyph-name="D" unicode="D" horiz-adv-x="639" 
d="M94 0v680h230q122 0 186 -68t64 -200v-143q0 -133 -64 -201t-186 -68h-230zM319 565h-105v-450h105q71 0 101.5 35t30.5 119v143q0 83 -30.5 118t-101.5 35z" />
    <glyph glyph-name="E" unicode="E" horiz-adv-x="536" 
d="M488 115v-115h-394v680h384v-115h-264v-163h234v-115h-234v-172h274z" />
    <glyph glyph-name="F" unicode="F" horiz-adv-x="505" 
d="M442 261h-228v-261h-120v680h378v-115h-258v-189h228v-115z" />
    <glyph glyph-name="G" unicode="G" horiz-adv-x="603" 
d="M544 44q-25 -15 -82.5 -34.5t-134.5 -19.5q-87 0 -145.5 36t-88.5 99t-30 144v143q0 83 30 145.5t89.5 97.5t149.5 35q44 0 91 -9.5t103 -34.5l-37 -105q-49 19 -84.5 27.5t-70.5 8.5q-78 0 -113 -44.5t-35 -120.5v-143q0 -72 35.5 -118t111.5 -46q23 0 50 4t52 11v149
h-110v105h219v-330z" />
    <glyph glyph-name="H" unicode="H" horiz-adv-x="682" 
d="M468 0v287h-254v-287h-120v680h120v-278h254v278h120v-680h-120z" />
    <glyph glyph-name="I" unicode="I" horiz-adv-x="308" 
d="M214 0h-120v680h120v-680z" />
    <glyph glyph-name="J" unicode="J" horiz-adv-x="376" 
d="M26 -10v115q81 0 117.5 30.5t36.5 108.5v436h120v-436q0 -78 -24 -135t-83.5 -88t-166.5 -31z" />
    <glyph glyph-name="K" unicode="K" horiz-adv-x="616" 
d="M455 0l-170 297q-17 -19 -34.5 -38t-36.5 -39v-220h-120v680h120v-323q76 87 130 165.5t93 157.5h131q-43 -86 -91.5 -162.5t-102.5 -141.5l226 -376h-145z" />
    <glyph glyph-name="L" unicode="L" horiz-adv-x="507" 
d="M486 115v-115h-392v680h120v-565h272z" />
    <glyph glyph-name="M" unicode="M" horiz-adv-x="829" 
d="M225 680l190 -465l189 465h131v-680h-115v260l15 238l-169 -418h-107l-165 419l15 -239v-260h-115v680h131z" />
    <glyph glyph-name="N" unicode="N" horiz-adv-x="683" 
d="M94 0v680h110q79 -103 150 -217.5t129 -235.5l-9 203v250h115v-680h-110q-64 126 -132.5 253.5t-145.5 240.5l8 -234v-260h-115z" />
    <glyph glyph-name="O" unicode="O" horiz-adv-x="640" 
d="M575 412v-143q0 -130 -65 -204.5t-190 -74.5q-126 0 -190.5 74.5t-64.5 204.5v143q0 130 64.5 204t190.5 74q125 0 190 -74t65 -204zM452 412q0 82 -32 123.5t-100 41.5t-100 -41.5t-32 -123.5v-143q0 -82 32 -124t100 -42t100 42t32 124v143z" />
    <glyph glyph-name="P" unicode="P" horiz-adv-x="574" 
d="M94 0v680h224q107 0 160.5 -54t53.5 -144v-53q0 -90 -53.5 -144.5t-160.5 -54.5h-104v-230h-120zM318 565h-104v-220h104q44 0 67.5 22t23.5 62v53q0 39 -23.5 61t-67.5 22z" />
    <glyph glyph-name="Q" unicode="Q" horiz-adv-x="640" 
d="M560 -73v-125q-78 0 -125 18t-73.5 52t-42.5 83l-12 35q-119 4 -180.5 78t-61.5 201v143q0 130 64.5 204t190.5 74q125 0 190 -74t65 -204v-143q0 -101 -39.5 -169.5t-116.5 -94.5q9 -32 25 -49t43.5 -23t72.5 -6zM452 412q0 82 -32 123.5t-100 41.5t-100 -41.5
t-32 -123.5v-143q0 -82 32 -124t100 -42t100 42t32 124v143z" />
    <glyph glyph-name="R" unicode="R" horiz-adv-x="609" 
d="M214 250v-250h-120v680h227q103 0 158.5 -52.5t55.5 -140.5v-43q0 -58 -25 -102t-72 -67q82 -140 140 -275h-137q-50 125 -119 250h-108zM321 570h-107v-210h107q44 0 67.5 22.5t23.5 61.5v43q0 38 -23.5 60.5t-67.5 22.5z" />
    <glyph glyph-name="S" unicode="S" horiz-adv-x="518" 
d="M242 101q116 0 116 86q0 35 -17.5 55t-64.5 35l-82 27q-147 48 -147 193q0 84 52.5 138.5t164.5 54.5q47 0 93 -10.5t98 -33.5l-37 -103q-48 19 -81.5 27.5t-68.5 8.5q-46 0 -72.5 -16.5t-26.5 -59.5q0 -32 18.5 -52.5t61.5 -34.5l82 -27q74 -25 111.5 -72.5t37.5 -125.5
q0 -90 -57 -145.5t-179 -55.5q-48 0 -99.5 11.5t-112.5 39.5l37 103q56 -24 95.5 -33.5t77.5 -9.5z" />
    <glyph glyph-name="T" unicode="T" horiz-adv-x="526" 
d="M13 565v115h500v-115h-190v-565h-120v565h-190z" />
    <glyph glyph-name="U" unicode="U" horiz-adv-x="646" 
d="M78 680h123v-436q0 -66 29 -103.5t93 -37.5t93 37.5t29 103.5v436h123v-436q0 -115 -61 -184.5t-184 -69.5q-124 0 -184.5 69.5t-60.5 184.5v436z" />
    <glyph glyph-name="V" unicode="V" horiz-adv-x="584" 
d="M570 680l-216 -680h-123l-217 680h132l103 -342l47 -176l50 177l102 341h122z" />
    <glyph glyph-name="W" unicode="W" horiz-adv-x="867" 
d="M208 411l38 -252l136 521h108l135 -517l42 248l52 269h122l-153 -680h-123l-131 506l-132 -506h-123l-153 680h130z" />
    <glyph glyph-name="X" unicode="X" horiz-adv-x="569" 
d="M418 0l-142 249l-135 -249h-126l199 353l-188 327h136l131 -228l123 228h126l-187 -333l199 -347h-136z" />
    <glyph glyph-name="Y" unicode="Y" horiz-adv-x="544" 
d="M541 680l-208 -407v-273h-120v271l-210 409h128l147 -290l139 290h124z" />
    <glyph glyph-name="Z" unicode="Z" horiz-adv-x="509" 
d="M473 115v-115h-435v105l284 460h-274v115h415v-105l-284 -460h294z" />
    <glyph glyph-name="bracketleft" unicode="[" horiz-adv-x="350" 
d="M349 -43v-100h-255v883h255v-100h-140v-683h140z" />
    <glyph glyph-name="backslash" unicode="\" horiz-adv-x="394" 
d="M109 740l324 -883h-118l-324 883h118z" />
    <glyph glyph-name="bracketright" unicode="]" horiz-adv-x="350" 
d="M256 740v-883h-255v100h140v683h-140v100h255z" />
    <glyph glyph-name="asciicircum" unicode="^" 
d="M391 266l-99 260l-99 -260h-106l166 414h81l167 -414h-110z" />
    <glyph glyph-name="underscore" unicode="_" horiz-adv-x="414" 
d="M5 -163v73h404v-73h-404z" />
    <glyph glyph-name="grave" unicode="`" horiz-adv-x="500" 
d="M199 579l-103 120l108 46l96 -166h-101z" />
    <glyph glyph-name="a" unicode="a" horiz-adv-x="507" 
d="M463 -5q-51 0 -81.5 21t-44.5 52q-43 -40 -83 -59t-86 -19q-67 0 -98.5 43t-31.5 109q0 44 16.5 77.5t54.5 52.5t104 19q26 0 54 -3.5t56 -8.5v59q0 42 -23 57.5t-62 15.5q-30 0 -65.5 -8t-76.5 -25l-33 98q101 41 183 41q74 0 114.5 -25t56.5 -66t16 -88v-195
q0 -15 8.5 -28.5t33.5 -13.5h11v-106h-23zM149 144q0 -27 12 -42.5t35 -15.5t52 12t75 56v43q-52 9 -102 9q-39 0 -55.5 -16t-16.5 -46z" />
    <glyph glyph-name="b" unicode="b" horiz-adv-x="560" 
d="M506 227q0 -109 -54 -173t-158 -64q-108 0 -219 60v690h115v-300q46 46 79 61.5t68 15.5q80 0 124.5 -62t44.5 -174v-54zM306 410q-24 0 -50.5 -14t-65.5 -55v-227q27 -11 49.5 -16t44.5 -5q56 0 80 36t24 98v54q0 67 -21.5 98t-60.5 31z" />
    <glyph glyph-name="c" unicode="c" horiz-adv-x="448" 
d="M167 283v-59q0 -64 23 -96t74 -32q25 0 56.5 6.5t68.5 20.5l33 -97q-45 -18 -85 -27t-79 -9q-100 0 -153 64t-53 170v59q0 107 53 170.5t153 63.5q38 0 77 -9t82 -26l-33 -99q-72 28 -120 28q-51 0 -74 -31.5t-23 -96.5z" />
    <glyph glyph-name="d" unicode="d" horiz-adv-x="564" 
d="M376 0v69q-46 -46 -79.5 -62.5t-69.5 -16.5q-82 0 -127.5 62t-45.5 174v54q0 109 55 173t159 64q26 0 51.5 -5t50.5 -14v242h115v-740h-109zM172 226q0 -67 22.5 -98t63.5 -31q23 0 49 13.5t63 51.5v232q-49 20 -90 20q-58 0 -83 -36t-25 -98v-54z" />
    <glyph glyph-name="e" unicode="e" horiz-adv-x="521" 
d="M464 29q-52 -21 -98 -30t-87 -9q-113 0 -171 64t-58 170v60q0 71 26 123t74 81t113 29q53 0 99.5 -21.5t76 -67t29.5 -116.5q0 -21 -3 -44.5t-10 -49.5h-294q2 -62 31 -93t93 -31q34 0 70.5 8t75.5 24zM263 420q-46 0 -71.5 -29.5t-29.5 -84.5h192q1 5 1 9.5v8.5
q0 48 -27 72t-65 24z" />
    <glyph glyph-name="f" unicode="f" horiz-adv-x="377" 
d="M372 407h-158v-407h-115v407h-82v100h82v53q0 83 42 136.5t135 53.5q34 0 70 -7t65 -18l-28 -99q-48 16 -86 16q-40 0 -61.5 -17.5t-21.5 -64.5v-53h158v-100z" />
    <glyph glyph-name="g" unicode="g" horiz-adv-x="531" 
d="M500 -51q0 -81 -63.5 -126.5t-176.5 -45.5q-53 0 -112 12t-109 40l33 91q48 -24 95 -34.5t92 -10.5q63 0 96 17t33 45q0 43 -51 43h-120q-49 0 -79 16t-44 41.5t-14 53.5q0 29 12.5 54.5t34.5 47.5q-36 22 -57.5 59t-21.5 89q0 59 25 98t68.5 58.5t96.5 19.5h17
q20 0 39 -2.5t36 -7.5h181v-98l-100 16q15 -16 23.5 -39.5t8.5 -57.5q0 -51 -25.5 -87.5t-68 -56t-94.5 -19.5h-17q-20 0 -38 3q-11 -12 -16 -24.5t-5 -23.5q0 -35 45 -35h122q69 0 111.5 -35.5t42.5 -100.5zM255 259q31 0 54.5 21t23.5 61t-23.5 61t-54.5 21h-17
q-32 0 -55.5 -21t-23.5 -61t23.5 -61t55.5 -21h17z" />
    <glyph glyph-name="h" unicode="h" horiz-adv-x="584" 
d="M327 410q-25 0 -57 -12t-76 -47v-351h-115v740h115v-296q46 39 86 56t82 17q73 0 111 -46.5t38 -130.5v-340h-115v326q0 84 -69 84z" />
    <glyph glyph-name="i" unicode="i" horiz-adv-x="273" 
d="M197 603h-121v119h121v-119zM194 0h-115v507h115v-507z" />
    <glyph glyph-name="j" unicode="j" horiz-adv-x="273" 
d="M197 603h-121v119h121v-119zM-25 -223v108q50 0 77 24t27 87v511h115v-511q0 -57 -18.5 -107t-66 -81t-134.5 -31z" />
    <glyph glyph-name="k" unicode="k" horiz-adv-x="532" 
d="M382 0l-125 211q-30 -30 -63 -60v-151h-115v740h115v-462q57 58 98.5 111.5t76.5 117.5h132q-33 -60 -72 -114t-86 -109l178 -284h-139z" />
    <glyph glyph-name="l" unicode="l" horiz-adv-x="276" 
d="M76 143v597h115v-597q0 -15 7.5 -28.5t29.5 -13.5h16v-106h-28q-57 0 -87 22t-41.5 56t-11.5 70z" />
    <glyph glyph-name="m" unicode="m" horiz-adv-x="881" 
d="M194 351v-351h-115v507h109v-67q47 41 87 59t82 18q93 0 127 -82q50 44 93 63t87 19q70 0 107 -46.5t37 -130.5v-340h-115v326q0 84 -64 84q-25 0 -55 -12t-73 -47v-351h-115v326q0 84 -64 84q-25 0 -55 -12t-73 -47z" />
    <glyph glyph-name="n" unicode="n" horiz-adv-x="584" 
d="M327 410q-25 0 -57 -12t-76 -47v-351h-115v507h109v-68q47 41 89 59.5t85 18.5q73 0 111 -46.5t38 -130.5v-340h-115v326q0 84 -69 84z" />
    <glyph glyph-name="o" unicode="o" horiz-adv-x="544" 
d="M494 284v-60q0 -106 -58 -170t-164 -64t-164 64t-58 170v60q0 106 57.5 169.5t164.5 63.5t164.5 -63.5t57.5 -169.5zM376 284q0 61 -27 95.5t-77 34.5t-77 -34.5t-27 -95.5v-60q0 -61 27 -96t77 -35t77 35t27 96v60z" />
    <glyph glyph-name="p" unicode="p" horiz-adv-x="564" 
d="M296 -10q-25 0 -50.5 5t-51.5 14v-222h-115v720h109v-69q47 47 80 63t69 16q83 0 128 -62t45 -174v-54q0 -109 -55 -173t-159 -64zM306 410q-23 0 -48.5 -13.5t-63.5 -51.5v-232q49 -20 90 -20q58 0 83 36t25 98v54q0 67 -22.5 98t-63.5 31z" />
    <glyph glyph-name="q" unicode="q" horiz-adv-x="561" 
d="M485 457v-670h-115v280q-46 -46 -79 -61.5t-68 -15.5q-80 0 -124.5 62t-44.5 174v54q0 109 54.5 173t157.5 64q108 0 219 -60zM172 226q0 -67 21.5 -98t60.5 -31q24 0 50.5 14t65.5 55v227q-27 11 -49.5 16t-44.5 5q-55 0 -79.5 -36t-24.5 -98v-54z" />
    <glyph glyph-name="r" unicode="r" horiz-adv-x="387" 
d="M365 402q-47 0 -89.5 -14.5t-81.5 -46.5v-341h-115v507h109v-78q51 48 91 68t86 20v-115z" />
    <glyph glyph-name="s" unicode="s" horiz-adv-x="456" 
d="M221 90q37 0 61 12.5t24 37.5q0 22 -15.5 34.5t-55.5 22.5l-57 15q-66 17 -97.5 57t-31.5 95q0 65 45 109t139 44q38 0 80 -9t88 -29l-33 -98q-42 20 -76 28t-60 8q-71 0 -71 -48q0 -19 12.5 -30t46.5 -20l57 -15q73 -19 106.5 -58t33.5 -98q0 -70 -47.5 -114t-149.5 -44
q-87 0 -183 40l31 95q47 -19 85 -27t68 -8z" />
    <glyph glyph-name="t" unicode="t" horiz-adv-x="397" 
d="M384 17q-26 -12 -60 -19.5t-69 -7.5q-58 0 -93 24t-50.5 67t-15.5 98v228h-82v100h82v132h115v-132h158v-100h-158v-228q0 -46 17.5 -63.5t50.5 -17.5q16 0 34.5 3.5t41.5 12.5z" />
    <glyph glyph-name="u" unicode="u" horiz-adv-x="569" 
d="M381 0v67q-46 -40 -86 -58.5t-81 -18.5q-68 0 -105 46.5t-37 130.5v340h115v-326q0 -84 62 -84q25 0 54.5 12t71.5 46v352h115v-507h-109z" />
    <glyph glyph-name="v" unicode="v" horiz-adv-x="499" 
d="M482 507l-180 -507h-105l-180 507h116l87 -253l33 -105l32 105l83 253h114z" />
    <glyph glyph-name="w" unicode="w" horiz-adv-x="737" 
d="M710 507l-130 -507h-125l-84 381l-89 -381h-125l-130 507h118l49 -201l34 -183l86 384h116l89 -388l32 186l48 202h111z" />
    <glyph glyph-name="x" unicode="x" horiz-adv-x="490" 
d="M347 0l-105 170l-103 -170h-120l164 260l-153 247h124l94 -151l91 151h120l-153 -242l165 -265h-124z" />
    <glyph glyph-name="y" unicode="y" horiz-adv-x="499" 
d="M284 -50q-33 -92 -84 -132.5t-140 -40.5v115q53 2 83.5 23.5t45.5 59.5l9 23l-181 509h114l87 -253l34 -107l33 107l83 253h114z" />
    <glyph glyph-name="z" unicode="z" horiz-adv-x="432" 
d="M397 100v-100h-362v90l214 317h-204v100h342v-90l-214 -317h224z" />
    <glyph glyph-name="braceleft" unicode="{" horiz-adv-x="381" 
d="M380 -44v-100h-89q-108 0 -149 55.5t-19 149.5l20 86q11 45 -1.5 73t-68.5 28h-53v100h53q56 0 68.5 28t1.5 73l-20 86q-22 94 19 149.5t149 55.5h89v-100h-89q-37 0 -50 -24t-4 -62l20 -86q16 -69 -3.5 -112t-69.5 -58q50 -15 70 -57.5t3 -112.5l-20 -86q-9 -37 4 -61.5
t50 -24.5h89z" />
    <glyph glyph-name="bar" unicode="|" horiz-adv-x="303" 
d="M94 740h115v-953h-115v953z" />
    <glyph glyph-name="braceright" unicode="}" horiz-adv-x="381" 
d="M258 61q22 -94 -19 -149.5t-149 -55.5h-89v100h89q37 0 50 24.5t4 61.5l-20 86q-16 69 3.5 112t69.5 58q-50 15 -69.5 57.5t-3.5 112.5l20 86q9 38 -4 62t-50 24h-89v100h89q108 0 149 -55.5t19 -149.5l-20 -86q-10 -45 2 -73t68 -28h53v-100h-53q-56 0 -68 -28t-2 -73z
" />
    <glyph glyph-name="asciitilde" unicode="~" 
d="M376 210q-33 0 -58 16t-44.5 37t-34.5 37t-29 16q-6 0 -13.5 -5.5t-15 -25.5t-14.5 -65l-90 20q11 70 31 108t47 53t56 15q33 0 58 -16t44 -37t34.5 -37t28.5 -16q7 0 14.5 5.5t15.5 26.5t15 65l90 -20q-11 -70 -31.5 -108.5t-47 -53.5t-56.5 -15z" />
    <glyph glyph-name="uni00A0" unicode="&#xa0;" horiz-adv-x="200" 
 />
    <glyph glyph-name="exclamdown" unicode="&#xa1;" horiz-adv-x="281" 
d="M80 507h121v-119h-121v119zM95 308h90l12 -261v-220h-115v220z" />
    <glyph glyph-name="cent" unicode="&#xa2;" horiz-adv-x="448" 
d="M422 26q-28 -11 -54.5 -19t-52.5 -12v-120h-110v120q-75 17 -114 77.5t-39 151.5v59q0 92 39 152.5t114 76.5v120h110v-120q48 -9 102 -30l-33 -99q-72 28 -120 28q-51 0 -74 -31.5t-23 -96.5v-59q0 -64 23 -96t74 -32q25 0 56.5 6.5t68.5 20.5z" />
    <glyph glyph-name="sterling" unicode="&#xa3;" horiz-adv-x="487" 
d="M461 0h-400v105q57 47 74.5 83t17.5 64q0 5 -0.5 10t-1.5 10h-98v100h59q-16 32 -30 68t-14 80q0 49 20.5 87t65.5 60.5t117 22.5q42 0 86.5 -9.5t96.5 -32.5l-37 -106q-47 20 -81 27.5t-60 7.5q-40 0 -62.5 -17.5t-22.5 -56.5q0 -34 15 -66t31 -65h155v-100h-122v-12
q0 -71 -67 -145h258v-115z" />
    <glyph glyph-name="currency" unicode="&#xa4;" horiz-adv-x="558" 
d="M546 87l-57 -59l-103 106q-46 -31 -107 -31q-60 0 -107 31l-103 -106l-57 59l103 107q-28 47 -28 106t28 106l-103 107l57 59l103 -106q47 31 107 31q61 0 107 -31l103 106l57 -59l-103 -107q28 -47 28 -106t-28 -106zM279 193q42 0 69.5 27.5t27.5 79.5t-27.5 79.5
t-69.5 27.5t-69.5 -27.5t-27.5 -79.5t27.5 -79.5t69.5 -27.5z" />
    <glyph glyph-name="yen" unicode="&#xa5;" horiz-adv-x="566" 
d="M509 149h-165v-149h-120v149h-165v87h165v35l-21 41h-144v87h99l-144 281h128l147 -290l139 290h124l-144 -281h101v-87h-145l-20 -39v-37h165v-87z" />
    <glyph glyph-name="brokenbar" unicode="&#xa6;" horiz-adv-x="281" 
d="M83 740h115v-383h-115v383zM83 170h115v-383h-115v383z" />
    <glyph glyph-name="section" unicode="&#xa7;" horiz-adv-x="521" 
d="M458 -38q0 -80 -52.5 -132.5t-164.5 -52.5q-44 0 -98 11t-113 37l37 105q53 -22 94 -31t78 -9q46 0 71 15t25 49q0 26 -18.5 44.5t-67.5 36.5l-82 30q-64 23 -93 65t-29 92q0 44 23 82.5t63 63.5q-34 26 -50 63t-16 80q0 77 51 128t151 51q42 0 87.5 -9t102.5 -32
l-37 -105q-50 19 -83 26t-67 7q-37 0 -59.5 -15.5t-22.5 -47.5q0 -25 19 -43.5t65 -35.5l82 -30q64 -23 94 -63t30 -90q0 -41 -22.5 -79.5t-67.5 -64.5q70 -52 70 -146zM247 167l53 -19q29 20 42 37.5t13 45.5q0 29 -18 44t-63 31l-61 21q-26 -22 -35.5 -42t-9.5 -40
q0 -27 17 -44.5t62 -33.5z" />
    <glyph glyph-name="dieresis" unicode="&#xa8;" horiz-adv-x="500" 
d="M208 609h-109v107h109v-107zM402 609h-109v107h109v-107z" />
    <glyph glyph-name="copyright" unicode="&#xa9;" horiz-adv-x="834" 
d="M417 -37q-81 0 -149 28t-118 79t-77.5 119.5t-27.5 150.5t27.5 150.5t77.5 119.5t118 79t149 28q80 0 148 -28t118 -79t78 -119.5t28 -150.5t-28 -150.5t-78 -119.5t-118 -79t-148 -28zM417 33q86 0 152.5 39.5t105 108.5t38.5 159q0 89 -38.5 158.5t-105 109
t-152.5 39.5q-85 0 -152 -39.5t-105.5 -109t-38.5 -158.5q0 -90 38.5 -159t105.5 -108.5t152 -39.5zM333 361v-41q0 -55 20 -83.5t65 -28.5q26 0 53 8t55 21l29 -79q-68 -35 -142 -35q-85 0 -129 52t-44 145v41q0 92 44 144t129 52q32 0 67 -7.5t66 -24.5l-29 -79
q-25 12 -50 19t-49 7q-45 0 -65 -28t-20 -83z" />
    <glyph glyph-name="ordfeminine" unicode="&#xaa;" horiz-adv-x="327" 
d="M307 338q-31 0 -54 10.5t-34 30.5q-31 -26 -54.5 -35t-45.5 -9q-49 0 -72 28.5t-23 68.5q0 42 23.5 71.5t86.5 29.5q15 0 32.5 -2t36.5 -4v41q0 25 -13.5 34.5t-41.5 9.5q-24 0 -47 -6.5t-48 -18.5l-19 68q29 14 57 22t58 8q54 0 82 -16t38.5 -41t10.5 -53v-132
q0 -15 5 -24t20 -9h9v-72h-7zM101 437q0 -16 7.5 -25.5t22.5 -9.5q17 0 33.5 7t38.5 26v33q-17 2 -33 3.5t-27 1.5q-42 0 -42 -36z" />
    <glyph glyph-name="guillemotleft" unicode="&#xab;" horiz-adv-x="711" 
d="M338 134v-120l-296 195v77l296 192v-116l-184 -113zM658 134v-120l-296 195v77l296 192v-116l-184 -113z" />
    <glyph glyph-name="logicalnot" unicode="&#xac;" 
d="M87 475h414v-257h-102v157h-312v100z" />
    <glyph glyph-name="uni00AD" unicode="&#xad;" horiz-adv-x="0" 
 />
    <glyph glyph-name="registered" unicode="&#xae;" horiz-adv-x="528" 
d="M264 241q-67 0 -120 31t-83.5 85t-30.5 122q0 69 30.5 122.5t83.5 84.5t120 31t120 -31t83.5 -84.5t30.5 -122.5q0 -68 -30.5 -122t-83.5 -85t-120 -31zM264 299q50 0 88.5 23.5t61 64.5t22.5 92q0 52 -22.5 92.5t-61 64t-88.5 23.5q-49 0 -88 -23.5t-61.5 -64
t-22.5 -92.5q0 -51 22.5 -92t61.5 -64.5t88 -23.5zM175 353v255h95q41 0 62.5 -22.5t21.5 -59.5v-9q0 -48 -34 -70q28 -44 49 -94h-67q-9 21 -19 41.5t-21 39.5h-26v-81h-61zM270 550h-34v-57h34q21 0 21 24v9q0 24 -21 24z" />
    <glyph glyph-name="macron" unicode="&#xaf;" horiz-adv-x="500" 
d="M402 692v-83h-303v83h303z" />
    <glyph glyph-name="degree" unicode="&#xb0;" horiz-adv-x="348" 
d="M174 366q-70 0 -113.5 45.5t-43.5 116.5q0 72 43.5 117t113.5 45q69 0 113 -45t44 -117q0 -47 -20 -84t-55.5 -57.5t-81.5 -20.5zM174 443q35 0 56 23t21 62t-21 62t-56 23q-34 0 -55.5 -23t-21.5 -62t21.5 -62t55.5 -23z" />
    <glyph glyph-name="plusminus" unicode="&#xb1;" 
d="M501 295h-156v-150h-102v150h-156v100h156v150h102v-150h156v-100zM87 0v100h414v-100h-414z" />
    <glyph glyph-name="uni00B2" unicode="&#xb2;" horiz-adv-x="269" 
d="M242 445h-221v68q0 50 22 78t53 41l34 15q20 9 27 18t7 20v3q0 27 -43 27q-18 0 -36.5 -5t-44.5 -14l-19 71q29 13 54 18t49 5q65 0 92 -29t27 -70v-9q0 -34 -18.5 -57t-57.5 -40l-34 -15q-17 -7 -24 -18.5t-9 -29.5h142v-77z" />
    <glyph glyph-name="uni00B3" unicode="&#xb3;" horiz-adv-x="275" 
d="M243 538q0 -40 -28.5 -69t-95.5 -29q-25 0 -51.5 5t-52.5 16l20 70q23 -8 42.5 -11.5t37.5 -3.5q49 0 49 29v7q0 14 -11 23.5t-32 9.5h-51v64h51q40 0 40 30v7q0 29 -46 29q-15 0 -32.5 -3.5t-40.5 -11.5l-22 70q28 11 51.5 15.5t45.5 4.5q67 0 95 -28t28 -68v-7
q0 -24 -13 -41.5t-35 -28.5q23 -10 37 -28.5t14 -43.5v-7z" />
    <glyph glyph-name="acute" unicode="&#xb4;" horiz-adv-x="500" 
d="M301 579h-101l96 166l108 -46z" />
    <glyph glyph-name="uni00B5" unicode="&#xb5;" horiz-adv-x="574" 
d="M194 -213h-115v720h115v-326q0 -84 62 -84q25 0 54.5 12t71.5 46v352h115v-364q0 -15 8.5 -28.5t33.5 -13.5h11v-106h-23q-61 0 -91 22.5t-41 56.5q-49 -44 -88.5 -64t-77.5 -20q-35 0 -58 15l23 -130v-88z" />
    <glyph glyph-name="paragraph" unicode="&#xb6;" horiz-adv-x="569" 
d="M37 482q0 90 53.5 144t160.5 54h306v-87h-82v-736h-120v736h-63v-363h-41q-107 0 -160.5 54.5t-53.5 144.5v53z" />
    <glyph glyph-name="periodcentered" unicode="&#xb7;" horiz-adv-x="500" 
d="M311 325h-121v119h121v-119z" />
    <glyph glyph-name="cedilla" unicode="&#xb8;" horiz-adv-x="500" 
d="M364 -124q0 -49 -35 -74t-91 -25q-24 0 -44 4t-41 11l13 69q42 -11 72 -11q21 0 30 7t9 17q0 9 -8 16.5t-31 7.5q-12 0 -27 -3l-25 32l12 73h77l-7 -39q50 -2 73 -26t23 -59z" />
    <glyph glyph-name="uni00B9" unicode="&#xb9;" horiz-adv-x="220" 
d="M17 737l96 48h60v-340h-79v252l-47 -23z" />
    <glyph glyph-name="ordmasculine" unicode="&#xba;" horiz-adv-x="344" 
d="M323 531v-42q0 -73 -40 -113.5t-111 -40.5q-72 0 -111.5 40.5t-39.5 113.5v42q0 70 39 112t112 42q72 0 111.5 -42t39.5 -112zM243 531q0 37 -18.5 58t-52.5 21t-52.5 -21t-18.5 -58v-42q0 -38 18.5 -58.5t52.5 -20.5t52.5 20.5t18.5 58.5v42z" />
    <glyph glyph-name="guillemotright" unicode="&#xbb;" horiz-adv-x="711" 
d="M669 206l-296 -192v116l184 113l-184 115v120l296 -195v-77zM349 206l-296 -192v116l184 113l-184 115v120l296 -195v-77z" />
    <glyph glyph-name="onequarter" unicode="&#xbc;" horiz-adv-x="614" 
d="M17 632l96 48h60v-340h-79v252l-47 -23zM420 680h90l-329 -680h-90zM608 67h-34v-67h-73v67h-148v64q35 53 65 105t49 104h85q-19 -51 -48 -101.5t-65 -102.5h62v46h73v-46h34v-69z" />
    <glyph glyph-name="onehalf" unicode="&#xbd;" horiz-adv-x="645" 
d="M17 632l96 48h60v-340h-79v252l-47 -23zM420 680h90l-329 -680h-90zM618 0h-221v68q0 50 22 78t53 41l34 15q20 9 27 18t7 20v3q0 27 -43 27q-18 0 -36.5 -5t-44.5 -14l-19 71q29 13 54 18t49 5q65 0 92 -29t27 -70v-9q0 -34 -18.5 -57t-57.5 -40l-34 -15
q-17 -7 -24 -18.5t-9 -29.5h142v-77z" />
    <glyph glyph-name="threequarters" unicode="&#xbe;" horiz-adv-x="644" 
d="M243 433q0 -40 -28.5 -69t-95.5 -29q-25 0 -51.5 5t-52.5 16l20 70q23 -8 42.5 -11.5t37.5 -3.5q49 0 49 29v7q0 14 -11 23.5t-32 9.5h-51v64h51q40 0 40 30v7q0 29 -46 29q-15 0 -32.5 -3.5t-40.5 -11.5l-22 70q28 11 51.5 15.5t45.5 4.5q67 0 95 -28t28 -68v-7
q0 -24 -13 -41.5t-35 -28.5q23 -10 37 -28.5t14 -43.5v-7zM450 680h90l-329 -680h-90zM638 67h-34v-67h-73v67h-148v64q35 53 65 105t49 104h85q-19 -51 -48 -101.5t-65 -102.5h62v46h73v-46h34v-69z" />
    <glyph glyph-name="questiondown" unicode="&#xbf;" horiz-adv-x="454" 
d="M195 507h121v-119h-121v119zM263 -76q34 0 71 9t86 29l37 -99q-57 -25 -107.5 -35.5t-94.5 -10.5q-77 0 -123.5 23t-67.5 62.5t-21 90.5v18q0 53 16 91.5t56 74.5l36 33q33 30 39 48.5t6 40.5v9h120v-18q0 -38 -12 -70t-57 -73l-37 -34q-29 -27 -39 -46.5t-10 -45.5v-18
q0 -34 23 -56.5t79 -22.5z" />
    <glyph glyph-name="Agrave" unicode="&#xc0;" horiz-adv-x="601" 
d="M456 0l-42 133h-233l-42 -133h-119l227 680h106l228 -680h-125zM246 341l-31 -98h164l-31 98l-50 172zM250 752l-103 120l108 46l96 -166h-101z" />
    <glyph glyph-name="Aacute" unicode="&#xc1;" horiz-adv-x="601" 
d="M456 0l-42 133h-233l-42 -133h-119l227 680h106l228 -680h-125zM246 341l-31 -98h164l-31 98l-50 172zM352 752h-101l96 166l108 -46z" />
    <glyph glyph-name="Acircumflex" unicode="&#xc2;" horiz-adv-x="601" 
d="M456 0l-42 133h-233l-42 -133h-119l227 680h106l228 -680h-125zM246 341l-31 -98h164l-31 98l-50 172zM359 752l-61 80l-61 -80h-89l96 161h112l96 -161h-93z" />
    <glyph glyph-name="Atilde" unicode="&#xc3;" horiz-adv-x="601" 
d="M456 0l-42 133h-233l-42 -133h-119l227 680h106l228 -680h-125zM246 341l-31 -98h164l-31 98l-50 172zM360 761q-24 0 -40.5 11t-28.5 25t-22 25t-21 11q-9 0 -13 -12.5t-5 -51.5h-81q0 87 26.5 120.5t66.5 33.5q24 0 40.5 -11t28.5 -25t22 -25t21 -11q9 0 13 12.5
t5 51.5h81q0 -88 -26 -121t-67 -33z" />
    <glyph glyph-name="Adieresis" unicode="&#xc4;" horiz-adv-x="601" 
d="M456 0l-42 133h-233l-42 -133h-119l227 680h106l228 -680h-125zM246 341l-31 -98h164l-31 98l-50 172zM258 782h-109v107h109v-107zM452 782h-109v107h109v-107z" />
    <glyph glyph-name="Aring" unicode="&#xc5;" horiz-adv-x="601" 
d="M181 133l-42 -133h-119l211 632q-50 30 -50 96v11q0 51 32.5 82.5t87.5 31.5t87.5 -31.5t32.5 -82.5v-11q0 -67 -51 -97l211 -631h-125l-42 133h-233zM350 739q0 22 -13 35t-36 13q-22 0 -35.5 -13t-13.5 -35v-11q0 -22 13.5 -35t35.5 -13q23 0 36 13t13 35v11zM246 341
l-31 -98h164l-31 98l-50 172z" />
    <glyph glyph-name="AE" unicode="&#xc6;" horiz-adv-x="843" 
d="M1 0l337 680h447v-115h-264v-163h234v-115h-234v-172h274v-115h-394v133h-205l-64 -133h-131zM249 243h152v314z" />
    <glyph glyph-name="Ccedilla" unicode="&#xc7;" horiz-adv-x="534" 
d="M411 -124q0 -49 -35 -74t-91 -25q-24 0 -44 4t-41 11l13 69q42 -11 72 -11q21 0 30 7t9 17q0 9 -8 16.5t-31 7.5q-12 0 -27 -3l-25 32l12 71q-91 22 -136.5 95t-45.5 176v143q0 81 28 144t84.5 98.5t140.5 35.5q41 0 85 -9.5t96 -32.5l-37 -106q-46 19 -77 27t-60 8
q-73 0 -105 -46t-32 -119v-143q0 -73 32 -119.5t105 -46.5q30 0 62.5 8t80.5 27l37 -104q-54 -24 -99 -34t-84 -10l-5 -29q50 -2 73 -26t23 -59z" />
    <glyph glyph-name="Egrave" unicode="&#xc8;" horiz-adv-x="536" 
d="M488 115v-115h-394v680h384v-115h-264v-163h234v-115h-234v-172h274zM235 752l-103 120l108 46l96 -166h-101z" />
    <glyph glyph-name="Eacute" unicode="&#xc9;" horiz-adv-x="536" 
d="M488 115v-115h-394v680h384v-115h-264v-163h234v-115h-234v-172h274zM337 752h-101l96 166l108 -46z" />
    <glyph glyph-name="Ecircumflex" unicode="&#xca;" horiz-adv-x="536" 
d="M488 115v-115h-394v680h384v-115h-264v-163h234v-115h-234v-172h274zM344 752l-61 80l-61 -80h-89l96 161h112l96 -161h-93z" />
    <glyph glyph-name="Edieresis" unicode="&#xcb;" horiz-adv-x="536" 
d="M488 115v-115h-394v680h384v-115h-264v-163h234v-115h-234v-172h274zM244 782h-109v107h109v-107zM438 782h-109v107h109v-107z" />
    <glyph glyph-name="Igrave" unicode="&#xcc;" horiz-adv-x="308" 
d="M214 0h-120v680h120v-680zM103 752l-103 120l108 46l96 -166h-101z" />
    <glyph glyph-name="Iacute" unicode="&#xcd;" horiz-adv-x="308" 
d="M214 0h-120v680h120v-680zM205 752h-101l96 166l108 -46z" />
    <glyph glyph-name="Icircumflex" unicode="&#xce;" horiz-adv-x="308" 
d="M214 0h-120v680h120v-680zM212 752l-61 80l-61 -80h-89l96 161h112l96 -161h-93z" />
    <glyph glyph-name="Idieresis" unicode="&#xcf;" horiz-adv-x="308" 
d="M214 0h-120v680h120v-680zM112 782h-109v107h109v-107zM306 782h-109v107h109v-107z" />
    <glyph glyph-name="Eth" unicode="&#xd0;" horiz-adv-x="648" 
d="M21 399h82v281h230q122 0 186 -68t64 -200v-143q0 -133 -64 -201t-186 -68h-230v290h-82v109zM343 290h-120v-175h105q71 0 101.5 35t30.5 119v143q0 83 -30.5 118t-101.5 35h-105v-166h120v-109z" />
    <glyph glyph-name="Ntilde" unicode="&#xd1;" horiz-adv-x="683" 
d="M94 0v680h110q79 -103 150 -217.5t129 -235.5l-9 203v250h115v-680h-110q-64 126 -132.5 253.5t-145.5 240.5l8 -234v-260h-115zM401 761q-24 0 -40.5 11t-28.5 25t-22 25t-21 11q-9 0 -13 -12.5t-5 -51.5h-81q0 87 26.5 120.5t66.5 33.5q24 0 40.5 -11t28.5 -25t22 -25
t21 -11q9 0 13 12.5t5 51.5h81q0 -88 -26 -121t-67 -33z" />
    <glyph glyph-name="Ograve" unicode="&#xd2;" horiz-adv-x="640" 
d="M575 412v-143q0 -130 -65 -204.5t-190 -74.5q-126 0 -190.5 74.5t-64.5 204.5v143q0 130 64.5 204t190.5 74q125 0 190 -74t65 -204zM452 412q0 82 -32 123.5t-100 41.5t-100 -41.5t-32 -123.5v-143q0 -82 32 -124t100 -42t100 42t32 124v143zM269 752l-103 120l108 46
l96 -166h-101z" />
    <glyph glyph-name="Oacute" unicode="&#xd3;" horiz-adv-x="640" 
d="M575 412v-143q0 -130 -65 -204.5t-190 -74.5q-126 0 -190.5 74.5t-64.5 204.5v143q0 130 64.5 204t190.5 74q125 0 190 -74t65 -204zM452 412q0 82 -32 123.5t-100 41.5t-100 -41.5t-32 -123.5v-143q0 -82 32 -124t100 -42t100 42t32 124v143zM371 752h-101l96 166
l108 -46z" />
    <glyph glyph-name="Ocircumflex" unicode="&#xd4;" horiz-adv-x="640" 
d="M575 412v-143q0 -130 -65 -204.5t-190 -74.5q-126 0 -190.5 74.5t-64.5 204.5v143q0 130 64.5 204t190.5 74q125 0 190 -74t65 -204zM452 412q0 82 -32 123.5t-100 41.5t-100 -41.5t-32 -123.5v-143q0 -82 32 -124t100 -42t100 42t32 124v143zM378 752l-61 80l-61 -80
h-89l96 161h112l96 -161h-93z" />
    <glyph glyph-name="Otilde" unicode="&#xd5;" horiz-adv-x="640" 
d="M575 412v-143q0 -130 -65 -204.5t-190 -74.5q-126 0 -190.5 74.5t-64.5 204.5v143q0 130 64.5 204t190.5 74q125 0 190 -74t65 -204zM452 412q0 82 -32 123.5t-100 41.5t-100 -41.5t-32 -123.5v-143q0 -82 32 -124t100 -42t100 42t32 124v143zM379 761q-24 0 -40.5 11
t-28.5 25t-22 25t-21 11q-9 0 -13 -12.5t-5 -51.5h-81q0 87 26.5 120.5t66.5 33.5q24 0 40.5 -11t28.5 -25t22 -25t21 -11q9 0 13 12.5t5 51.5h81q0 -88 -26 -121t-67 -33z" />
    <glyph glyph-name="Odieresis" unicode="&#xd6;" horiz-adv-x="640" 
d="M575 412v-143q0 -130 -65 -204.5t-190 -74.5q-126 0 -190.5 74.5t-64.5 204.5v143q0 130 64.5 204t190.5 74q125 0 190 -74t65 -204zM452 412q0 82 -32 123.5t-100 41.5t-100 -41.5t-32 -123.5v-143q0 -82 32 -124t100 -42t100 42t32 124v143zM278 782h-109v107h109v-107
zM472 782h-109v107h109v-107z" />
    <glyph glyph-name="multiply" unicode="&#xd7;" 
d="M504 176l-71 -71l-139 139l-139 -139l-71 71l139 139l-139 139l71 71l139 -139l139 139l71 -71l-139 -139z" />
    <glyph glyph-name="Oslash" unicode="&#xd8;" horiz-adv-x="640" 
d="M320 -10q-75 0 -128 27l-26 -47h-101l57 103q-57 72 -57 196v143q0 130 64.5 204t190.5 74q76 0 128 -27l26 47h101l-57 -103q57 -72 57 -195v-143q0 -130 -65 -204.5t-190 -74.5zM185 269q0 -19 1.5 -36.5t5.5 -32.5l201 363q-31 17 -73 17q-70 0 -102.5 -42.5
t-32.5 -125.5v-143zM455 412q0 20 -1.5 37t-5.5 31l-201 -363q31 -17 73 -17q70 0 102.5 43t32.5 126v143z" />
    <glyph glyph-name="Ugrave" unicode="&#xd9;" horiz-adv-x="646" 
d="M78 680h123v-436q0 -66 29 -103.5t93 -37.5t93 37.5t29 103.5v436h123v-436q0 -115 -61 -184.5t-184 -69.5q-124 0 -184.5 69.5t-60.5 184.5v436zM272 752l-103 120l108 46l96 -166h-101z" />
    <glyph glyph-name="Uacute" unicode="&#xda;" horiz-adv-x="646" 
d="M78 680h123v-436q0 -66 29 -103.5t93 -37.5t93 37.5t29 103.5v436h123v-436q0 -115 -61 -184.5t-184 -69.5q-124 0 -184.5 69.5t-60.5 184.5v436zM374 752h-101l96 166l108 -46z" />
    <glyph glyph-name="Ucircumflex" unicode="&#xdb;" horiz-adv-x="646" 
d="M78 680h123v-436q0 -66 29 -103.5t93 -37.5t93 37.5t29 103.5v436h123v-436q0 -115 -61 -184.5t-184 -69.5q-124 0 -184.5 69.5t-60.5 184.5v436zM381 752l-61 80l-61 -80h-89l96 161h112l96 -161h-93z" />
    <glyph glyph-name="Udieresis" unicode="&#xdc;" horiz-adv-x="646" 
d="M78 680h123v-436q0 -66 29 -103.5t93 -37.5t93 37.5t29 103.5v436h123v-436q0 -115 -61 -184.5t-184 -69.5q-124 0 -184.5 69.5t-60.5 184.5v436zM281 782h-109v107h109v-107zM475 782h-109v107h109v-107z" />
    <glyph glyph-name="Yacute" unicode="&#xdd;" horiz-adv-x="544" 
d="M541 680l-208 -407v-273h-120v271l-210 409h128l147 -290l139 290h124zM323 752h-101l96 166l108 -46z" />
    <glyph glyph-name="Thorn" unicode="&#xde;" horiz-adv-x="574" 
d="M318 118h-104v-118h-120v680h120v-112h104q107 0 160.5 -54t53.5 -144v-53q0 -90 -53.5 -144.5t-160.5 -54.5zM318 453h-104v-220h104q44 0 67.5 22t23.5 62v53q0 39 -23.5 61t-67.5 22z" />
    <glyph glyph-name="germandbls" unicode="&#xdf;" horiz-adv-x="629" 
d="M603 151q0 -70 -43 -115.5t-130 -45.5q-28 0 -68 6.5t-84 25.5l27 98q40 -18 71.5 -24.5t52.5 -6.5q63 0 63 53q0 16 -8.5 33.5t-35.5 36.5l-41 29q-43 30 -64 63.5t-21 75.5q0 38 14 72.5t28 66t14 60.5q0 34 -23.5 48.5t-58.5 14.5q-38 0 -60 -17.5t-22 -64.5v-560
h-115v407h-82v100h82v53q0 83 47 136.5t150 53.5q51 0 95 -16t71.5 -51t27.5 -93q0 -44 -14 -76.5t-28 -59.5t-14 -55q0 -16 9.5 -32.5t42.5 -39.5l41 -29q42 -30 59 -66.5t17 -80.5z" />
    <glyph glyph-name="agrave" unicode="&#xe0;" horiz-adv-x="507" 
d="M463 -5q-51 0 -81.5 21t-44.5 52q-43 -40 -83 -59t-86 -19q-67 0 -98.5 43t-31.5 109q0 44 16.5 77.5t54.5 52.5t104 19q26 0 54 -3.5t56 -8.5v59q0 42 -23 57.5t-62 15.5q-30 0 -65.5 -8t-76.5 -25l-33 98q101 41 183 41q74 0 114.5 -25t56.5 -66t16 -88v-195
q0 -15 8.5 -28.5t33.5 -13.5h11v-106h-23zM149 144q0 -27 12 -42.5t35 -15.5t52 12t75 56v43q-52 9 -102 9q-39 0 -55.5 -16t-16.5 -46zM192 579l-103 120l108 46l96 -166h-101z" />
    <glyph glyph-name="aacute" unicode="&#xe1;" horiz-adv-x="507" 
d="M463 -5q-51 0 -81.5 21t-44.5 52q-43 -40 -83 -59t-86 -19q-67 0 -98.5 43t-31.5 109q0 44 16.5 77.5t54.5 52.5t104 19q26 0 54 -3.5t56 -8.5v59q0 42 -23 57.5t-62 15.5q-30 0 -65.5 -8t-76.5 -25l-33 98q101 41 183 41q74 0 114.5 -25t56.5 -66t16 -88v-195
q0 -15 8.5 -28.5t33.5 -13.5h11v-106h-23zM149 144q0 -27 12 -42.5t35 -15.5t52 12t75 56v43q-52 9 -102 9q-39 0 -55.5 -16t-16.5 -46zM294 579h-101l96 166l108 -46z" />
    <glyph glyph-name="acircumflex" unicode="&#xe2;" horiz-adv-x="507" 
d="M463 -5q-51 0 -81.5 21t-44.5 52q-43 -40 -83 -59t-86 -19q-67 0 -98.5 43t-31.5 109q0 44 16.5 77.5t54.5 52.5t104 19q26 0 54 -3.5t56 -8.5v59q0 42 -23 57.5t-62 15.5q-30 0 -65.5 -8t-76.5 -25l-33 98q101 41 183 41q74 0 114.5 -25t56.5 -66t16 -88v-195
q0 -15 8.5 -28.5t33.5 -13.5h11v-106h-23zM149 144q0 -27 12 -42.5t35 -15.5t52 12t75 56v43q-52 9 -102 9q-39 0 -55.5 -16t-16.5 -46zM301 579l-61 80l-61 -80h-89l96 161h112l96 -161h-93z" />
    <glyph glyph-name="atilde" unicode="&#xe3;" horiz-adv-x="507" 
d="M463 -5q-51 0 -81.5 21t-44.5 52q-43 -40 -83 -59t-86 -19q-67 0 -98.5 43t-31.5 109q0 44 16.5 77.5t54.5 52.5t104 19q26 0 54 -3.5t56 -8.5v59q0 42 -23 57.5t-62 15.5q-30 0 -65.5 -8t-76.5 -25l-33 98q101 41 183 41q74 0 114.5 -25t56.5 -66t16 -88v-195
q0 -15 8.5 -28.5t33.5 -13.5h11v-106h-23zM149 144q0 -27 12 -42.5t35 -15.5t52 12t75 56v43q-52 9 -102 9q-39 0 -55.5 -16t-16.5 -46zM302 588q-24 0 -40.5 11t-28.5 25t-22 25t-21 11q-9 0 -13 -12.5t-5 -51.5h-81q0 87 26.5 120.5t66.5 33.5q24 0 40.5 -11t28.5 -25
t22 -25t21 -11q9 0 13 12.5t5 51.5h81q0 -88 -26 -121t-67 -33z" />
    <glyph glyph-name="adieresis" unicode="&#xe4;" horiz-adv-x="507" 
d="M463 -5q-51 0 -81.5 21t-44.5 52q-43 -40 -83 -59t-86 -19q-67 0 -98.5 43t-31.5 109q0 44 16.5 77.5t54.5 52.5t104 19q26 0 54 -3.5t56 -8.5v59q0 42 -23 57.5t-62 15.5q-30 0 -65.5 -8t-76.5 -25l-33 98q101 41 183 41q74 0 114.5 -25t56.5 -66t16 -88v-195
q0 -15 8.5 -28.5t33.5 -13.5h11v-106h-23zM149 144q0 -27 12 -42.5t35 -15.5t52 12t75 56v43q-52 9 -102 9q-39 0 -55.5 -16t-16.5 -46zM200 609h-109v107h109v-107zM394 609h-109v107h109v-107z" />
    <glyph glyph-name="aring" unicode="&#xe5;" horiz-adv-x="507" 
d="M463 -5q-51 0 -81.5 21t-44.5 52q-43 -40 -83 -59t-86 -19q-67 0 -98.5 43t-31.5 109q0 44 16.5 77.5t54.5 52.5t104 19q26 0 54 -3.5t56 -8.5v59q0 42 -23 57.5t-62 15.5q-30 0 -65.5 -8t-76.5 -25l-33 98q101 41 183 41q74 0 114.5 -25t56.5 -66t16 -88v-195
q0 -15 8.5 -28.5t33.5 -13.5h11v-106h-23zM149 144q0 -27 12 -42.5t35 -15.5t52 12t75 56v43q-52 9 -102 9q-39 0 -55.5 -16t-16.5 -46zM363 689v-11q0 -51 -32.5 -83t-87.5 -32t-87.5 32t-32.5 83v11q0 51 32.5 82.5t87.5 31.5t87.5 -31.5t32.5 -82.5zM292 689q0 22 -13 35
t-36 13q-22 0 -35.5 -13t-13.5 -35v-11q0 -22 13.5 -35t35.5 -13q23 0 36 13t13 35v11z" />
    <glyph glyph-name="ae" unicode="&#xe6;" horiz-adv-x="794" 
d="M737 29q-52 -21 -98 -30t-87 -9q-68 0 -116 24t-76 67q-49 -47 -94 -69t-98 -22q-67 0 -98.5 43t-31.5 109q0 44 16.5 77.5t54.5 52.5t104 19q26 0 54 -3.5t56 -8.5v59q0 42 -23 57.5t-62 15.5q-30 0 -65.5 -8t-76.5 -25l-33 98q101 41 183 41q57 0 91.5 -19t52.5 -51
q25 33 62 51.5t84 18.5q53 0 99.5 -21.5t76 -67t29.5 -116.5q0 -21 -3 -44.5t-10 -49.5h-294q2 -62 31 -93t93 -31q34 0 70.5 8t75.5 24zM536 420q-46 0 -71 -29.5t-30 -84.5h192q1 5 1 9.5v8.5q0 48 -27 72t-65 24zM149 144q0 -27 12 -42.5t35 -15.5t54 13t79 61
q-1 9 -2.5 18t-2.5 19q-54 9 -103 9q-39 0 -55.5 -16t-16.5 -46z" />
    <glyph glyph-name="ccedilla" unicode="&#xe7;" horiz-adv-x="448" 
d="M371 -124q0 -49 -35 -74t-91 -25q-24 0 -44 4t-41 11l13 69q42 -11 72 -11q21 0 30 7t9 17q0 9 -8 16.5t-31 7.5q-12 0 -27 -3l-25 32l11 69q-74 16 -113 76.5t-39 151.5v59q0 107 53 170.5t153 63.5q38 0 77 -9t82 -26l-33 -99q-72 28 -120 28q-51 0 -74 -31.5
t-23 -96.5v-59q0 -64 23 -96t74 -32q25 0 56.5 6.5t68.5 20.5l33 -97q-74 -30 -142 -35l-5 -30q50 -2 73 -26t23 -59z" />
    <glyph glyph-name="egrave" unicode="&#xe8;" horiz-adv-x="521" 
d="M464 29q-52 -21 -98 -30t-87 -9q-113 0 -171 64t-58 170v60q0 71 26 123t74 81t113 29q53 0 99.5 -21.5t76 -67t29.5 -116.5q0 -21 -3 -44.5t-10 -49.5h-294q2 -62 31 -93t93 -31q34 0 70.5 8t75.5 24zM263 420q-46 0 -71.5 -29.5t-29.5 -84.5h192q1 5 1 9.5v8.5
q0 48 -27 72t-65 24zM213 579l-103 120l108 46l96 -166h-101z" />
    <glyph glyph-name="eacute" unicode="&#xe9;" horiz-adv-x="521" 
d="M464 29q-52 -21 -98 -30t-87 -9q-113 0 -171 64t-58 170v60q0 71 26 123t74 81t113 29q53 0 99.5 -21.5t76 -67t29.5 -116.5q0 -21 -3 -44.5t-10 -49.5h-294q2 -62 31 -93t93 -31q34 0 70.5 8t75.5 24zM263 420q-46 0 -71.5 -29.5t-29.5 -84.5h192q1 5 1 9.5v8.5
q0 48 -27 72t-65 24zM315 579h-101l96 166l108 -46z" />
    <glyph glyph-name="ecircumflex" unicode="&#xea;" horiz-adv-x="521" 
d="M464 29q-52 -21 -98 -30t-87 -9q-113 0 -171 64t-58 170v60q0 71 26 123t74 81t113 29q53 0 99.5 -21.5t76 -67t29.5 -116.5q0 -21 -3 -44.5t-10 -49.5h-294q2 -62 31 -93t93 -31q34 0 70.5 8t75.5 24zM263 420q-46 0 -71.5 -29.5t-29.5 -84.5h192q1 5 1 9.5v8.5
q0 48 -27 72t-65 24zM322 579l-61 80l-61 -80h-89l96 161h112l96 -161h-93z" />
    <glyph glyph-name="edieresis" unicode="&#xeb;" horiz-adv-x="521" 
d="M464 29q-52 -21 -98 -30t-87 -9q-113 0 -171 64t-58 170v60q0 71 26 123t74 81t113 29q53 0 99.5 -21.5t76 -67t29.5 -116.5q0 -21 -3 -44.5t-10 -49.5h-294q2 -62 31 -93t93 -31q34 0 70.5 8t75.5 24zM263 420q-46 0 -71.5 -29.5t-29.5 -84.5h192q1 5 1 9.5v8.5
q0 48 -27 72t-65 24zM221 609h-109v107h109v-107zM415 609h-109v107h109v-107z" />
    <glyph glyph-name="igrave" unicode="&#xec;" horiz-adv-x="273" 
d="M194 0h-115v507h115v-507zM86 579l-103 120l108 46l96 -166h-101z" />
    <glyph glyph-name="iacute" unicode="&#xed;" horiz-adv-x="273" 
d="M194 0h-115v507h115v-507zM188 579h-101l96 166l108 -46z" />
    <glyph glyph-name="icircumflex" unicode="&#xee;" horiz-adv-x="273" 
d="M194 0h-115v507h115v-507zM195 579l-61 80l-61 -80h-89l96 161h112l96 -161h-93z" />
    <glyph glyph-name="idieresis" unicode="&#xef;" horiz-adv-x="273" 
d="M194 0h-115v507h115v-507zM94 609h-109v107h109v-107zM288 609h-109v107h109v-107z" />
    <glyph glyph-name="eth" unicode="&#xf0;" horiz-adv-x="537" 
d="M489 259q0 -134 -59 -201.5t-166 -67.5q-106 0 -163 53t-57 150v30q0 65 23.5 113t65.5 74t97 26q32 0 63.5 -9.5t66.5 -35.5q-10 41 -30.5 80t-52.5 74l-135 -82v96l74 45q-39 31 -85 57l45 89q38 -22 70 -45t60 -46l151 91v-96l-90 -54q65 -72 93.5 -148t28.5 -153v-40
zM162 193q0 -100 102 -100q51 0 79 39.5t28 126.5v25q-34 27 -59.5 36t-49.5 9q-46 0 -73 -28t-27 -78v-30z" />
    <glyph glyph-name="ntilde" unicode="&#xf1;" horiz-adv-x="584" 
d="M327 410q-25 0 -57 -12t-76 -47v-351h-115v507h109v-68q47 41 89 59.5t85 18.5q73 0 111 -46.5t38 -130.5v-340h-115v326q0 84 -69 84zM359 588q-24 0 -40.5 11t-28.5 25t-22 25t-21 11q-9 0 -13 -12.5t-5 -51.5h-81q0 87 26.5 120.5t66.5 33.5q24 0 40.5 -11t28.5 -25
t22 -25t21 -11q9 0 13 12.5t5 51.5h81q0 -88 -26 -121t-67 -33z" />
    <glyph glyph-name="ograve" unicode="&#xf2;" horiz-adv-x="544" 
d="M494 284v-60q0 -106 -58 -170t-164 -64t-164 64t-58 170v60q0 106 57.5 169.5t164.5 63.5t164.5 -63.5t57.5 -169.5zM376 284q0 61 -27 95.5t-77 34.5t-77 -34.5t-27 -95.5v-60q0 -61 27 -96t77 -35t77 35t27 96v60zM221 579l-103 120l108 46l96 -166h-101z" />
    <glyph glyph-name="oacute" unicode="&#xf3;" horiz-adv-x="544" 
d="M494 284v-60q0 -106 -58 -170t-164 -64t-164 64t-58 170v60q0 106 57.5 169.5t164.5 63.5t164.5 -63.5t57.5 -169.5zM376 284q0 61 -27 95.5t-77 34.5t-77 -34.5t-27 -95.5v-60q0 -61 27 -96t77 -35t77 35t27 96v60zM323 579h-101l96 166l108 -46z" />
    <glyph glyph-name="ocircumflex" unicode="&#xf4;" horiz-adv-x="544" 
d="M494 284v-60q0 -106 -58 -170t-164 -64t-164 64t-58 170v60q0 106 57.5 169.5t164.5 63.5t164.5 -63.5t57.5 -169.5zM376 284q0 61 -27 95.5t-77 34.5t-77 -34.5t-27 -95.5v-60q0 -61 27 -96t77 -35t77 35t27 96v60zM330 579l-61 80l-61 -80h-89l96 161h112l96 -161h-93z
" />
    <glyph glyph-name="otilde" unicode="&#xf5;" horiz-adv-x="544" 
d="M494 284v-60q0 -106 -58 -170t-164 -64t-164 64t-58 170v60q0 106 57.5 169.5t164.5 63.5t164.5 -63.5t57.5 -169.5zM376 284q0 61 -27 95.5t-77 34.5t-77 -34.5t-27 -95.5v-60q0 -61 27 -96t77 -35t77 35t27 96v60zM331 588q-24 0 -40.5 11t-28.5 25t-22 25t-21 11
q-9 0 -13 -12.5t-5 -51.5h-81q0 87 26.5 120.5t66.5 33.5q24 0 40.5 -11t28.5 -25t22 -25t21 -11q9 0 13 12.5t5 51.5h81q0 -88 -26 -121t-67 -33z" />
    <glyph glyph-name="odieresis" unicode="&#xf6;" horiz-adv-x="544" 
d="M494 284v-60q0 -106 -58 -170t-164 -64t-164 64t-58 170v60q0 106 57.5 169.5t164.5 63.5t164.5 -63.5t57.5 -169.5zM376 284q0 61 -27 95.5t-77 34.5t-77 -34.5t-27 -95.5v-60q0 -61 27 -96t77 -35t77 35t27 96v60zM230 609h-109v107h109v-107zM424 609h-109v107h109
v-107z" />
    <glyph glyph-name="divide" unicode="&#xf7;" 
d="M355 447h-121v119h121v-119zM87 265v100h414v-100h-414zM355 59h-121v119h121v-119z" />
    <glyph glyph-name="oslash" unicode="&#xf8;" horiz-adv-x="544" 
d="M272 -10q-28 0 -53.5 5t-47.5 14l-24 -39h-97l54 88q-54 63 -54 166v60q0 106 57.5 169.5t164.5 63.5q29 0 54 -5t47 -14l24 39h97l-54 -88q54 -62 54 -165v-60q0 -106 -58 -170t-164 -64zM163 224q0 -16 2 -30.5t5 -26.5l149 243q-21 9 -47 9q-52 0 -80.5 -36t-28.5 -99
v-60zM381 284q0 33 -7 57l-149 -243q20 -10 47 -10q53 0 81 36.5t28 99.5v60z" />
    <glyph glyph-name="ugrave" unicode="&#xf9;" horiz-adv-x="569" 
d="M381 0v67q-46 -40 -86 -58.5t-81 -18.5q-68 0 -105 46.5t-37 130.5v340h115v-326q0 -84 62 -84q25 0 54.5 12t71.5 46v352h115v-507h-109zM230 579l-103 120l108 46l96 -166h-101z" />
    <glyph glyph-name="uacute" unicode="&#xfa;" horiz-adv-x="569" 
d="M381 0v67q-46 -40 -86 -58.5t-81 -18.5q-68 0 -105 46.5t-37 130.5v340h115v-326q0 -84 62 -84q25 0 54.5 12t71.5 46v352h115v-507h-109zM332 579h-101l96 166l108 -46z" />
    <glyph glyph-name="ucircumflex" unicode="&#xfb;" horiz-adv-x="569" 
d="M381 0v67q-46 -40 -86 -58.5t-81 -18.5q-68 0 -105 46.5t-37 130.5v340h115v-326q0 -84 62 -84q25 0 54.5 12t71.5 46v352h115v-507h-109zM339 579l-61 80l-61 -80h-89l96 161h112l96 -161h-93z" />
    <glyph glyph-name="udieresis" unicode="&#xfc;" horiz-adv-x="569" 
d="M381 0v67q-46 -40 -86 -58.5t-81 -18.5q-68 0 -105 46.5t-37 130.5v340h115v-326q0 -84 62 -84q25 0 54.5 12t71.5 46v352h115v-507h-109zM238 609h-109v107h109v-107zM432 609h-109v107h109v-107z" />
    <glyph glyph-name="yacute" unicode="&#xfd;" horiz-adv-x="499" 
d="M284 -50q-33 -92 -84 -132.5t-140 -40.5v115q53 2 83.5 23.5t45.5 59.5l9 23l-181 509h114l87 -253l34 -107l33 107l83 253h114zM301 579h-101l96 166l108 -46z" />
    <glyph glyph-name="thorn" unicode="&#xfe;" horiz-adv-x="560" 
d="M296 -10q-25 0 -50.5 5t-51.5 14v-222h-115v953h115v-296q44 43 76.5 58t66.5 15q80 0 124.5 -62t44.5 -174v-54q0 -109 -54 -173t-156 -64zM306 410q-23 0 -48.5 -13.5t-63.5 -51.5v-232q49 -20 90 -20q56 0 80 36t24 98v54q0 67 -21.5 98t-60.5 31z" />
    <glyph glyph-name="ydieresis" unicode="&#xff;" horiz-adv-x="499" 
d="M284 -50q-33 -92 -84 -132.5t-140 -40.5v115q53 2 83.5 23.5t45.5 59.5l9 23l-181 509h114l87 -253l34 -107l33 107l83 253h114zM207 609h-109v107h109v-107zM401 609h-109v107h109v-107z" />
    <glyph glyph-name="Amacron" unicode="&#x100;" horiz-adv-x="601" 
d="M456 0l-42 133h-233l-42 -133h-119l227 680h106l228 -680h-125zM246 341l-31 -98h164l-31 98l-50 172zM452 865v-83h-303v83h303z" />
    <glyph glyph-name="amacron" unicode="&#x101;" horiz-adv-x="507" 
d="M463 -5q-51 0 -81.5 21t-44.5 52q-43 -40 -83 -59t-86 -19q-67 0 -98.5 43t-31.5 109q0 44 16.5 77.5t54.5 52.5t104 19q26 0 54 -3.5t56 -8.5v59q0 42 -23 57.5t-62 15.5q-30 0 -65.5 -8t-76.5 -25l-33 98q101 41 183 41q74 0 114.5 -25t56.5 -66t16 -88v-195
q0 -15 8.5 -28.5t33.5 -13.5h11v-106h-23zM149 144q0 -27 12 -42.5t35 -15.5t52 12t75 56v43q-52 9 -102 9q-39 0 -55.5 -16t-16.5 -46zM394 692v-83h-303v83h303z" />
    <glyph glyph-name="Abreve" unicode="&#x102;" horiz-adv-x="601" 
d="M456 0l-42 133h-233l-42 -133h-119l227 680h106l228 -680h-125zM246 341l-31 -98h164l-31 98l-50 172zM301 839q22 0 34 14.5t13 50.5h87q-5 -78 -41.5 -112t-92.5 -34q-55 0 -92 34t-42 112h87q2 -36 14 -50.5t33 -14.5z" />
    <glyph glyph-name="abreve" unicode="&#x103;" horiz-adv-x="507" 
d="M463 -5q-51 0 -81.5 21t-44.5 52q-43 -40 -83 -59t-86 -19q-67 0 -98.5 43t-31.5 109q0 44 16.5 77.5t54.5 52.5t104 19q26 0 54 -3.5t56 -8.5v59q0 42 -23 57.5t-62 15.5q-30 0 -65.5 -8t-76.5 -25l-33 98q101 41 183 41q74 0 114.5 -25t56.5 -66t16 -88v-195
q0 -15 8.5 -28.5t33.5 -13.5h11v-106h-23zM149 144q0 -27 12 -42.5t35 -15.5t52 12t75 56v43q-52 9 -102 9q-39 0 -55.5 -16t-16.5 -46zM243 666q22 0 34 14.5t13 50.5h87q-5 -78 -41.5 -112t-92.5 -34q-55 0 -92 34t-42 112h87q2 -36 14 -50.5t33 -14.5z" />
    <glyph glyph-name="Aogonek" unicode="&#x104;" horiz-adv-x="601" 
d="M581 -207q-41 -16 -81 -16q-52 0 -82 25t-30 66q0 28 16.5 57t54.5 64l-45 144h-233l-42 -133h-119l227 680h106l228 -680q-55 -46 -74 -70t-19 -38q0 -25 30 -25q20 0 47 9zM246 341l-31 -98h164l-31 98l-50 172z" />
    <glyph glyph-name="aogonek" unicode="&#x105;" horiz-adv-x="507" 
d="M486 -207q-41 -16 -81 -16q-52 0 -82 25t-30 66q0 32 22 65.5t77 76.5q-19 10 -33 25t-22 33q-43 -40 -83 -59t-86 -19q-67 0 -98.5 43t-31.5 109q0 44 16.5 77.5t54.5 52.5t104 19q26 0 54 -3.5t56 -8.5v59q0 42 -23 57.5t-62 15.5q-30 0 -65.5 -8t-76.5 -25l-33 98
q101 41 183 41q74 0 114.5 -25t56.5 -66t16 -88v-195q0 -15 8.5 -28.5t33.5 -13.5h11v-106q-58 -43 -75.5 -66t-17.5 -37q0 -25 30 -25q20 0 47 9zM149 144q0 -27 12 -42.5t35 -15.5t52 12t75 56v43q-52 9 -102 9q-39 0 -55.5 -16t-16.5 -46z" />
    <glyph glyph-name="Cacute" unicode="&#x106;" horiz-adv-x="534" 
d="M186 269q0 -73 32 -119.5t105 -46.5q30 0 62.5 8t80.5 27l37 -104q-54 -24 -99.5 -34t-87.5 -10q-84 0 -140.5 36t-84.5 99t-28 144v143q0 81 28 144t84.5 98.5t140.5 35.5q41 0 85 -9.5t96 -32.5l-37 -106q-46 19 -77 27t-60 8q-73 0 -105 -46t-32 -119v-143zM361 752
h-101l96 166l108 -46z" />
    <glyph glyph-name="cacute" unicode="&#x107;" horiz-adv-x="448" 
d="M167 283v-59q0 -64 23 -96t74 -32q25 0 56.5 6.5t68.5 20.5l33 -97q-45 -18 -85 -27t-79 -9q-100 0 -153 64t-53 170v59q0 107 53 170.5t153 63.5q38 0 77 -9t82 -26l-33 -99q-72 28 -120 28q-51 0 -74 -31.5t-23 -96.5zM309 579h-101l96 166l108 -46z" />
    <glyph glyph-name="Ccircumflex" unicode="&#x108;" horiz-adv-x="534" 
d="M186 269q0 -73 32 -119.5t105 -46.5q30 0 62.5 8t80.5 27l37 -104q-54 -24 -99.5 -34t-87.5 -10q-84 0 -140.5 36t-84.5 99t-28 144v143q0 81 28 144t84.5 98.5t140.5 35.5q41 0 85 -9.5t96 -32.5l-37 -106q-46 19 -77 27t-60 8q-73 0 -105 -46t-32 -119v-143zM368 752
l-61 80l-61 -80h-89l96 161h112l96 -161h-93z" />
    <glyph glyph-name="ccircumflex" unicode="&#x109;" horiz-adv-x="448" 
d="M167 283v-59q0 -64 23 -96t74 -32q25 0 56.5 6.5t68.5 20.5l33 -97q-45 -18 -85 -27t-79 -9q-100 0 -153 64t-53 170v59q0 107 53 170.5t153 63.5q38 0 77 -9t82 -26l-33 -99q-72 28 -120 28q-51 0 -74 -31.5t-23 -96.5zM316 579l-61 80l-61 -80h-89l96 161h112l96 -161
h-93z" />
    <glyph glyph-name="Cdotaccent" unicode="&#x10a;" horiz-adv-x="534" 
d="M186 269q0 -73 32 -119.5t105 -46.5q30 0 62.5 8t80.5 27l37 -104q-54 -24 -99.5 -34t-87.5 -10q-84 0 -140.5 36t-84.5 99t-28 144v143q0 81 28 144t84.5 98.5t140.5 35.5q41 0 85 -9.5t96 -32.5l-37 -106q-46 19 -77 27t-60 8q-73 0 -105 -46t-32 -119v-143zM371 776
h-121v119h121v-119z" />
    <glyph glyph-name="cdotaccent" unicode="&#x10b;" horiz-adv-x="448" 
d="M167 283v-59q0 -64 23 -96t74 -32q25 0 56.5 6.5t68.5 20.5l33 -97q-45 -18 -85 -27t-79 -9q-100 0 -153 64t-53 170v59q0 107 53 170.5t153 63.5q38 0 77 -9t82 -26l-33 -99q-72 28 -120 28q-51 0 -74 -31.5t-23 -96.5zM319 603h-121v119h121v-119z" />
    <glyph glyph-name="Ccaron" unicode="&#x10c;" horiz-adv-x="534" 
d="M186 269q0 -73 32 -119.5t105 -46.5q30 0 62.5 8t80.5 27l37 -104q-54 -24 -99.5 -34t-87.5 -10q-84 0 -140.5 36t-84.5 99t-28 144v143q0 81 28 144t84.5 98.5t140.5 35.5q41 0 85 -9.5t96 -32.5l-37 -106q-46 19 -77 27t-60 8q-73 0 -105 -46t-32 -119v-143zM461 913
l-96 -161h-112l-96 161h93l61 -80l61 80h89z" />
    <glyph glyph-name="ccaron" unicode="&#x10d;" horiz-adv-x="448" 
d="M167 283v-59q0 -64 23 -96t74 -32q25 0 56.5 6.5t68.5 20.5l33 -97q-45 -18 -85 -27t-79 -9q-100 0 -153 64t-53 170v59q0 107 53 170.5t153 63.5q38 0 77 -9t82 -26l-33 -99q-72 28 -120 28q-51 0 -74 -31.5t-23 -96.5zM409 740l-96 -161h-112l-96 161h93l61 -80l61 80
h89z" />
    <glyph glyph-name="Dcaron" unicode="&#x10e;" horiz-adv-x="639" 
d="M94 0v680h230q122 0 186 -68t64 -200v-143q0 -133 -64 -201t-186 -68h-230zM319 565h-105v-450h105q71 0 101.5 35t30.5 119v143q0 83 -30.5 118t-101.5 35zM471 913l-96 -161h-112l-96 161h93l61 -80l61 80h89z" />
    <glyph glyph-name="dcaron" unicode="&#x10f;" horiz-adv-x="651" 
d="M376 0v69q-46 -46 -79.5 -62.5t-69.5 -16.5q-82 0 -127.5 62t-45.5 174v54q0 109 55 173t159 64q26 0 51.5 -5t50.5 -14v242h115v-740h-109zM172 226q0 -67 22.5 -98t63.5 -31q23 0 49 13.5t63 51.5v232q-49 20 -90 20q-58 0 -83 -36t-25 -98v-54zM633 546h-77v194h113z
" />
    <glyph glyph-name="Dcroat" unicode="&#x110;" horiz-adv-x="648" 
d="M21 399h82v281h230q122 0 186 -68t64 -200v-143q0 -133 -64 -201t-186 -68h-230v290h-82v109zM343 290h-120v-175h105q71 0 101.5 35t30.5 119v143q0 83 -30.5 118t-101.5 35h-105v-166h120v-109z" />
    <glyph glyph-name="dcroat" unicode="&#x111;" horiz-adv-x="564" 
d="M376 0v69q-46 -46 -79.5 -62.5t-69.5 -16.5q-82 0 -127.5 62t-45.5 174v54q0 109 55 173t159 64q26 0 51.5 -5t50.5 -14v92h-149v75h149v75h115v-75h82v-75h-82v-590h-109zM172 226q0 -67 22.5 -98t63.5 -31q23 0 49 13.5t63 51.5v232q-49 20 -90 20q-58 0 -83 -36
t-25 -98v-54z" />
    <glyph glyph-name="Emacron" unicode="&#x112;" horiz-adv-x="536" 
d="M488 115v-115h-394v680h384v-115h-264v-163h234v-115h-234v-172h274zM438 865v-83h-303v83h303z" />
    <glyph glyph-name="emacron" unicode="&#x113;" horiz-adv-x="521" 
d="M464 29q-52 -21 -98 -30t-87 -9q-113 0 -171 64t-58 170v60q0 71 26 123t74 81t113 29q53 0 99.5 -21.5t76 -67t29.5 -116.5q0 -21 -3 -44.5t-10 -49.5h-294q2 -62 31 -93t93 -31q34 0 70.5 8t75.5 24zM263 420q-46 0 -71.5 -29.5t-29.5 -84.5h192q1 5 1 9.5v8.5
q0 48 -27 72t-65 24zM415 692v-83h-303v83h303z" />
    <glyph glyph-name="Ebreve" unicode="&#x114;" horiz-adv-x="536" 
d="M488 115v-115h-394v680h384v-115h-264v-163h234v-115h-234v-172h274zM286 839q22 0 34 14.5t13 50.5h87q-5 -78 -41.5 -112t-92.5 -34q-55 0 -92 34t-42 112h87q2 -36 14 -50.5t33 -14.5z" />
    <glyph glyph-name="ebreve" unicode="&#x115;" horiz-adv-x="521" 
d="M464 29q-52 -21 -98 -30t-87 -9q-113 0 -171 64t-58 170v60q0 71 26 123t74 81t113 29q53 0 99.5 -21.5t76 -67t29.5 -116.5q0 -21 -3 -44.5t-10 -49.5h-294q2 -62 31 -93t93 -31q34 0 70.5 8t75.5 24zM263 420q-46 0 -71.5 -29.5t-29.5 -84.5h192q1 5 1 9.5v8.5
q0 48 -27 72t-65 24zM264 666q22 0 34 14.5t13 50.5h87q-5 -78 -41.5 -112t-92.5 -34q-55 0 -92 34t-42 112h87q2 -36 14 -50.5t33 -14.5z" />
    <glyph glyph-name="Edotaccent" unicode="&#x116;" horiz-adv-x="536" 
d="M488 115v-115h-394v680h384v-115h-264v-163h234v-115h-234v-172h274zM347 776h-121v119h121v-119z" />
    <glyph glyph-name="edotaccent" unicode="&#x117;" horiz-adv-x="521" 
d="M464 29q-52 -21 -98 -30t-87 -9q-113 0 -171 64t-58 170v60q0 71 26 123t74 81t113 29q53 0 99.5 -21.5t76 -67t29.5 -116.5q0 -21 -3 -44.5t-10 -49.5h-294q2 -62 31 -93t93 -31q34 0 70.5 8t75.5 24zM263 420q-46 0 -71.5 -29.5t-29.5 -84.5h192q1 5 1 9.5v8.5
q0 48 -27 72t-65 24zM324 603h-121v119h121v-119z" />
    <glyph glyph-name="Eogonek" unicode="&#x118;" horiz-adv-x="536" 
d="M488 -207q-41 -16 -81 -16q-52 0 -82 25t-30 66q0 30 19 61.5t65 70.5h-285v680h384v-115h-264v-163h234v-115h-234v-172h274v-115q-55 -46 -74 -70t-19 -38q0 -25 30 -25q20 0 47 9z" />
    <glyph glyph-name="eogonek" unicode="&#x119;" horiz-adv-x="521" 
d="M457 -207q-41 -16 -81 -16q-52 0 -82 25t-30 66q0 29 15 60.5t47 66.5q-15 -2 -30 -3.5t-29 -1.5q-104 0 -160.5 64t-56.5 170v60q0 71 26 123t74 81t113 29q53 0 99.5 -21.5t76 -67t29.5 -116.5q0 -21 -3 -44.5t-10 -49.5h-294q2 -62 31 -93t93 -31q34 0 70.5 8t75.5 24
l33 -97q-58 -55 -79 -87t-21 -50q0 -25 30 -25q20 0 47 9zM263 420q-46 0 -71 -29.5t-30 -84.5h192q1 5 1 9.5v8.5q0 48 -27 72t-65 24z" />
    <glyph glyph-name="Ecaron" unicode="&#x11a;" horiz-adv-x="536" 
d="M488 115v-115h-394v680h384v-115h-264v-163h234v-115h-234v-172h274zM437 913l-96 -161h-112l-96 161h93l61 -80l61 80h89z" />
    <glyph glyph-name="ecaron" unicode="&#x11b;" horiz-adv-x="521" 
d="M464 29q-52 -21 -98 -30t-87 -9q-113 0 -171 64t-58 170v60q0 71 26 123t74 81t113 29q53 0 99.5 -21.5t76 -67t29.5 -116.5q0 -21 -3 -44.5t-10 -49.5h-294q2 -62 31 -93t93 -31q34 0 70.5 8t75.5 24zM263 420q-46 0 -71.5 -29.5t-29.5 -84.5h192q1 5 1 9.5v8.5
q0 48 -27 72t-65 24zM415 740l-96 -161h-112l-96 161h93l61 -80l61 80h89z" />
    <glyph glyph-name="Gcircumflex" unicode="&#x11c;" horiz-adv-x="603" 
d="M544 44q-25 -15 -82.5 -34.5t-134.5 -19.5q-87 0 -145.5 36t-88.5 99t-30 144v143q0 83 30 145.5t89.5 97.5t149.5 35q44 0 91 -9.5t103 -34.5l-37 -105q-49 19 -84.5 27.5t-70.5 8.5q-78 0 -113 -44.5t-35 -120.5v-143q0 -72 35.5 -118t111.5 -46q23 0 50 4t52 11v149
h-110v105h219v-330zM385 752l-61 80l-61 -80h-89l96 161h112l96 -161h-93z" />
    <glyph glyph-name="gcircumflex" unicode="&#x11d;" horiz-adv-x="531" 
d="M500 -51q0 -81 -63.5 -126.5t-176.5 -45.5q-53 0 -112 12t-109 40l33 91q48 -24 95 -34.5t92 -10.5q63 0 96 17t33 45q0 43 -51 43h-120q-49 0 -79 16t-44 41.5t-14 53.5q0 29 12.5 54.5t34.5 47.5q-36 22 -57.5 59t-21.5 89q0 59 25 98t68.5 58.5t96.5 19.5h17
q20 0 39 -2.5t36 -7.5h181v-98l-100 16q15 -16 23.5 -39.5t8.5 -57.5q0 -51 -25.5 -87.5t-68 -56t-94.5 -19.5h-17q-20 0 -38 3q-11 -12 -16 -24.5t-5 -23.5q0 -35 45 -35h122q69 0 111.5 -35.5t42.5 -100.5zM255 259q31 0 54.5 21t23.5 61t-23.5 61t-54.5 21h-17
q-32 0 -55.5 -21t-23.5 -61t23.5 -61t55.5 -21h17zM304 579l-61 80l-61 -80h-89l96 161h112l96 -161h-93z" />
    <glyph glyph-name="Gbreve" unicode="&#x11e;" horiz-adv-x="603" 
d="M544 44q-25 -15 -82.5 -34.5t-134.5 -19.5q-87 0 -145.5 36t-88.5 99t-30 144v143q0 83 30 145.5t89.5 97.5t149.5 35q44 0 91 -9.5t103 -34.5l-37 -105q-49 19 -84.5 27.5t-70.5 8.5q-78 0 -113 -44.5t-35 -120.5v-143q0 -72 35.5 -118t111.5 -46q23 0 50 4t52 11v149
h-110v105h219v-330zM327 839q22 0 34 14.5t13 50.5h87q-5 -78 -41.5 -112t-92.5 -34q-55 0 -92 34t-42 112h87q2 -36 14 -50.5t33 -14.5z" />
    <glyph glyph-name="gbreve" unicode="&#x11f;" horiz-adv-x="531" 
d="M500 -51q0 -81 -63.5 -126.5t-176.5 -45.5q-53 0 -112 12t-109 40l33 91q48 -24 95 -34.5t92 -10.5q63 0 96 17t33 45q0 43 -51 43h-120q-49 0 -79 16t-44 41.5t-14 53.5q0 29 12.5 54.5t34.5 47.5q-36 22 -57.5 59t-21.5 89q0 59 25 98t68.5 58.5t96.5 19.5h17
q20 0 39 -2.5t36 -7.5h181v-98l-100 16q15 -16 23.5 -39.5t8.5 -57.5q0 -51 -25.5 -87.5t-68 -56t-94.5 -19.5h-17q-20 0 -38 3q-11 -12 -16 -24.5t-5 -23.5q0 -35 45 -35h122q69 0 111.5 -35.5t42.5 -100.5zM255 259q31 0 54.5 21t23.5 61t-23.5 61t-54.5 21h-17
q-32 0 -55.5 -21t-23.5 -61t23.5 -61t55.5 -21h17zM246 666q22 0 34 14.5t13 50.5h87q-5 -78 -41.5 -112t-92.5 -34q-55 0 -92 34t-42 112h87q2 -36 14 -50.5t33 -14.5z" />
    <glyph glyph-name="Gdotaccent" unicode="&#x120;" horiz-adv-x="603" 
d="M544 44q-25 -15 -82.5 -34.5t-134.5 -19.5q-87 0 -145.5 36t-88.5 99t-30 144v143q0 83 30 145.5t89.5 97.5t149.5 35q44 0 91 -9.5t103 -34.5l-37 -105q-49 19 -84.5 27.5t-70.5 8.5q-78 0 -113 -44.5t-35 -120.5v-143q0 -72 35.5 -118t111.5 -46q23 0 50 4t52 11v149
h-110v105h219v-330zM387 776h-121v119h121v-119z" />
    <glyph glyph-name="gdotaccent" unicode="&#x121;" horiz-adv-x="531" 
d="M500 -51q0 -81 -63.5 -126.5t-176.5 -45.5q-53 0 -112 12t-109 40l33 91q48 -24 95 -34.5t92 -10.5q63 0 96 17t33 45q0 43 -51 43h-120q-49 0 -79 16t-44 41.5t-14 53.5q0 29 12.5 54.5t34.5 47.5q-36 22 -57.5 59t-21.5 89q0 59 25 98t68.5 58.5t96.5 19.5h17
q20 0 39 -2.5t36 -7.5h181v-98l-100 16q15 -16 23.5 -39.5t8.5 -57.5q0 -51 -25.5 -87.5t-68 -56t-94.5 -19.5h-17q-20 0 -38 3q-11 -12 -16 -24.5t-5 -23.5q0 -35 45 -35h122q69 0 111.5 -35.5t42.5 -100.5zM255 259q31 0 54.5 21t23.5 61t-23.5 61t-54.5 21h-17
q-32 0 -55.5 -21t-23.5 -61t23.5 -61t55.5 -21h17zM306 603h-121v119h121v-119z" />
    <glyph glyph-name="uni0122" unicode="&#x122;" horiz-adv-x="603" 
d="M544 44q-25 -15 -82.5 -34.5t-134.5 -19.5q-87 0 -145.5 36t-88.5 99t-30 144v143q0 83 30 145.5t89.5 97.5t149.5 35q44 0 91 -9.5t103 -34.5l-37 -105q-49 19 -84.5 27.5t-70.5 8.5q-78 0 -113 -44.5t-35 -120.5v-143q0 -72 35.5 -118t111.5 -46q23 0 50 4t52 11v149
h-110v105h219v-330zM315 -256l-73 17l26 162h120z" />
    <glyph glyph-name="uni0123" unicode="&#x123;" horiz-adv-x="531" 
d="M500 -51q0 -81 -63.5 -126.5t-176.5 -45.5q-53 0 -112 12t-109 40l33 91q48 -24 95 -34.5t92 -10.5q63 0 96 17t33 45q0 43 -51 43h-120q-49 0 -79 16t-44 41.5t-14 53.5q0 29 12.5 54.5t34.5 47.5q-36 22 -57.5 59t-21.5 89q0 59 25 98t68.5 58.5t96.5 19.5h17
q20 0 39 -2.5t36 -7.5h181v-98l-100 16q15 -16 23.5 -39.5t8.5 -57.5q0 -51 -25.5 -87.5t-68 -56t-94.5 -19.5h-17q-20 0 -38 3q-11 -12 -16 -24.5t-5 -23.5q0 -35 45 -35h122q69 0 111.5 -35.5t42.5 -100.5zM255 259q31 0 54.5 21t23.5 61t-23.5 61t-54.5 21h-17
q-32 0 -55.5 -21t-23.5 -61t23.5 -61t55.5 -21h17zM258 758l73 -17l-26 -162h-120z" />
    <glyph glyph-name="Hcircumflex" unicode="&#x124;" horiz-adv-x="682" 
d="M468 0v287h-254v-287h-120v680h120v-278h254v278h120v-680h-120zM399 752l-61 80l-61 -80h-89l96 161h112l96 -161h-93z" />
    <glyph glyph-name="hcircumflex" unicode="&#x125;" horiz-adv-x="584" 
d="M327 410q-25 0 -57 -12t-76 -47v-351h-115v740h115v-296q46 39 86 56t82 17q73 0 111 -46.5t38 -130.5v-340h-115v326q0 84 -69 84zM300 812l-61 80l-61 -80h-89l96 161h112l96 -161h-93z" />
    <glyph glyph-name="Hbar" unicode="&#x126;" horiz-adv-x="700" 
d="M223 287v-287h-120v501h-82v87h82v92h120v-92h254v92h120v-92h82v-87h-82v-501h-120v287h-254zM223 402h254v99h-254v-99z" />
    <glyph glyph-name="hbar" unicode="&#x127;" horiz-adv-x="584" 
d="M194 351v-351h-115v590h-82v75h82v75h115v-75h149v-75h-149v-146q46 39 86 56t82 17q73 0 111 -46.5t38 -130.5v-340h-115v326q0 84 -69 84q-25 0 -57 -12t-76 -47z" />
    <glyph glyph-name="Itilde" unicode="&#x128;" horiz-adv-x="308" 
d="M214 0h-120v680h120v-680zM213 761q-24 0 -40.5 11t-28.5 25t-22 25t-21 11q-9 0 -13 -12.5t-5 -51.5h-81q0 87 26.5 120.5t66.5 33.5q24 0 40.5 -11t28.5 -25t22 -25t21 -11q9 0 13 12.5t5 51.5h81q0 -88 -26 -121t-67 -33z" />
    <glyph glyph-name="itilde" unicode="&#x129;" horiz-adv-x="273" 
d="M194 0h-115v507h115v-507zM196 588q-24 0 -40.5 11t-28.5 25t-22 25t-21 11q-9 0 -13 -12.5t-5 -51.5h-81q0 87 26.5 120.5t66.5 33.5q24 0 40.5 -11t28.5 -25t22 -25t21 -11q9 0 13 12.5t5 51.5h81q0 -88 -26 -121t-67 -33z" />
    <glyph glyph-name="Imacron" unicode="&#x12a;" horiz-adv-x="308" 
d="M214 0h-120v680h120v-680zM306 865v-83h-303v83h303z" />
    <glyph glyph-name="imacron" unicode="&#x12b;" horiz-adv-x="273" 
d="M194 0h-115v507h115v-507zM288 692v-83h-303v83h303z" />
    <glyph glyph-name="Ibreve" unicode="&#x12c;" horiz-adv-x="308" 
d="M214 0h-120v680h120v-680zM154 839q22 0 34 14.5t13 50.5h87q-5 -78 -41.5 -112t-92.5 -34q-55 0 -92 34t-42 112h87q2 -36 14 -50.5t33 -14.5z" />
    <glyph glyph-name="ibreve" unicode="&#x12d;" horiz-adv-x="273" 
d="M194 0h-115v507h115v-507zM137 666q22 0 34 14.5t13 50.5h87q-5 -78 -41.5 -112t-92.5 -34q-55 0 -92 34t-42 112h87q2 -36 14 -50.5t33 -14.5z" />
    <glyph glyph-name="Iogonek" unicode="&#x12e;" horiz-adv-x="308" 
d="M229 -207q-41 -16 -81 -16q-52 0 -82 25t-30 66q0 28 14 59.5t44 65.5v687h120v-680q-46 -37 -62 -63t-16 -43q0 -15 8.5 -21t21.5 -6q20 0 47 9z" />
    <glyph glyph-name="iogonek" unicode="&#x12f;" horiz-adv-x="273" 
d="M194 606h-115v113h115v-113zM209 -207q-41 -16 -81 -16q-52 0 -82 25t-30 66q0 29 15.5 62t47.5 68v509h115v-507q-46 -37 -62 -63t-16 -43q0 -15 8.5 -21t21.5 -6q20 0 47 9z" />
    <glyph glyph-name="Idotaccent" unicode="&#x130;" horiz-adv-x="308" 
d="M214 0h-120v680h120v-680zM215 776h-121v119h121v-119z" />
    <glyph glyph-name="dotlessi" unicode="&#x131;" horiz-adv-x="273" 
d="M194 0h-115v507h115v-507z" />
    <glyph glyph-name="IJ" unicode="&#x132;" horiz-adv-x="684" 
d="M214 0h-120v680h120v-680zM334 -10v115q81 0 117.5 30.5t36.5 108.5v436h120v-436q0 -78 -24 -135t-83.5 -88t-166.5 -31z" />
    <glyph glyph-name="ij" unicode="&#x133;" horiz-adv-x="546" 
d="M197 603h-121v119h121v-119zM194 0h-115v507h115v-507zM470 603h-121v119h121v-119zM248 -223v108q50 0 77 24t27 87v511h115v-511q0 -57 -18.5 -107t-66 -81t-134.5 -31z" />
    <glyph glyph-name="Jcircumflex" unicode="&#x134;" horiz-adv-x="376" 
d="M26 -10v115q81 0 117.5 30.5t36.5 108.5v436h120v-436q0 -78 -24 -135t-83.5 -88t-166.5 -31zM298 752l-61 80l-61 -80h-89l96 161h112l96 -161h-93z" />
    <glyph glyph-name="jcircumflex" unicode="&#x135;" horiz-adv-x="273" 
d="M-25 -223v108q50 0 77 24t27 87v511h115v-511q0 -57 -18.5 -107t-66 -81t-134.5 -31zM195 579l-61 80l-61 -80h-89l96 161h112l96 -161h-93z" />
    <glyph glyph-name="uni0136" unicode="&#x136;" horiz-adv-x="616" 
d="M455 0l-170 297q-17 -19 -34.5 -38t-36.5 -39v-220h-120v680h120v-323q76 87 130 165.5t93 157.5h131q-43 -86 -91.5 -162.5t-102.5 -141.5l226 -376h-145zM320 -256l-73 17l26 162h120z" />
    <glyph glyph-name="uni0137" unicode="&#x137;" horiz-adv-x="532" 
d="M382 0l-125 211q-30 -30 -63 -60v-151h-115v740h115v-462q57 58 98.5 111.5t76.5 117.5h132q-33 -60 -72 -114t-86 -109l178 -284h-139zM273 -256l-73 17l26 162h120z" />
    <glyph glyph-name="kgreenlandic" unicode="&#x138;" horiz-adv-x="532" 
d="M382 0l-125 211q-30 -30 -63 -60v-151h-115v507h115v-229q57 58 98.5 111.5t76.5 117.5h132q-33 -60 -72 -114t-86 -109l178 -284h-139z" />
    <glyph glyph-name="Lacute" unicode="&#x139;" horiz-adv-x="507" 
d="M486 115v-115h-392v680h120v-565h272zM204 752h-101l96 166l108 -46z" />
    <glyph glyph-name="lacute" unicode="&#x13a;" horiz-adv-x="276" 
d="M76 143v597h115v-597q0 -15 7.5 -28.5t29.5 -13.5h16v-106h-28q-57 0 -87 22t-41.5 56t-11.5 70zM187 812h-101l96 166l108 -46z" />
    <glyph glyph-name="uni013B" unicode="&#x13b;" horiz-adv-x="507" 
d="M486 115v-115h-392v680h120v-565h272zM281 -256l-73 17l26 162h120z" />
    <glyph glyph-name="uni013C" unicode="&#x13c;" horiz-adv-x="276" 
d="M76 143v597h115v-597q0 -15 7.5 -28.5t29.5 -13.5h16v-106h-28q-57 0 -87 22t-41.5 56t-11.5 70zM155 -256l-73 17l26 162h120z" />
    <glyph glyph-name="Lcaron" unicode="&#x13d;" horiz-adv-x="507" 
d="M486 115v-115h-392v680h120v-565h272zM366 486h-77v194h113z" />
    <glyph glyph-name="lcaron" unicode="&#x13e;" horiz-adv-x="360" 
d="M76 143v597h115v-597q0 -15 7.5 -28.5t29.5 -13.5h16v-106h-28q-57 0 -87 22t-41.5 56t-11.5 70zM346 546h-77v194h113z" />
    <glyph glyph-name="Ldot" unicode="&#x13f;" horiz-adv-x="507" 
d="M486 115v-115h-392v680h120v-565h272zM468 325h-121v119h121v-119z" />
    <glyph glyph-name="ldot" unicode="&#x140;" horiz-adv-x="336" 
d="M76 143v597h115v-597q0 -15 7.5 -28.5t29.5 -13.5h16v-106h-28q-57 0 -87 22t-41.5 56t-11.5 70zM362 325h-121v119h121v-119z" />
    <glyph glyph-name="Lslash" unicode="&#x141;" horiz-adv-x="516" 
d="M495 115v-115h-392v263l-82 -37v117l82 37v300h120v-245l120 54v-117l-120 -54v-203h272z" />
    <glyph glyph-name="lslash" unicode="&#x142;" horiz-adv-x="329" 
d="M273 101v-106h-28q-57 0 -87 22t-41.5 56t-11.5 70v150l-82 -43v113l82 43v334h115v-275l84 44v-113l-84 -44v-209q0 -15 7.5 -28.5t29.5 -13.5h16z" />
    <glyph glyph-name="Nacute" unicode="&#x143;" horiz-adv-x="683" 
d="M94 0v680h110q79 -103 150 -217.5t129 -235.5l-9 203v250h115v-680h-110q-64 126 -132.5 253.5t-145.5 240.5l8 -234v-260h-115zM393 752h-101l96 166l108 -46z" />
    <glyph glyph-name="nacute" unicode="&#x144;" horiz-adv-x="584" 
d="M327 410q-25 0 -57 -12t-76 -47v-351h-115v507h109v-68q47 41 89 59.5t85 18.5q73 0 111 -46.5t38 -130.5v-340h-115v326q0 84 -69 84zM351 579h-101l96 166l108 -46z" />
    <glyph glyph-name="uni0145" unicode="&#x145;" horiz-adv-x="683" 
d="M94 0v680h110q79 -103 150 -217.5t129 -235.5l-9 203v250h115v-680h-110q-64 126 -132.5 253.5t-145.5 240.5l8 -234v-260h-115zM329 -256l-73 17l26 162h120z" />
    <glyph glyph-name="uni0146" unicode="&#x146;" horiz-adv-x="584" 
d="M327 410q-25 0 -57 -12t-76 -47v-351h-115v507h109v-68q47 41 89 59.5t85 18.5q73 0 111 -46.5t38 -130.5v-340h-115v326q0 84 -69 84zM280 -256l-73 17l26 162h120z" />
    <glyph glyph-name="Ncaron" unicode="&#x147;" horiz-adv-x="683" 
d="M94 0v680h110q79 -103 150 -217.5t129 -235.5l-9 203v250h115v-680h-110q-64 126 -132.5 253.5t-145.5 240.5l8 -234v-260h-115zM493 913l-96 -161h-112l-96 161h93l61 -80l61 80h89z" />
    <glyph glyph-name="ncaron" unicode="&#x148;" horiz-adv-x="584" 
d="M327 410q-25 0 -57 -12t-76 -47v-351h-115v507h109v-68q47 41 89 59.5t85 18.5q73 0 111 -46.5t38 -130.5v-340h-115v326q0 84 -69 84zM451 740l-96 -161h-112l-96 161h93l61 -80l61 80h89z" />
    <glyph glyph-name="napostrophe" unicode="&#x149;" horiz-adv-x="723" 
d="M466 410q-25 0 -57 -12t-76 -47v-351h-115v507h109v-68q47 41 89 59.5t85 18.5q73 0 111 -46.5t38 -130.5v-340h-115v326q0 84 -69 84zM167 680v-19q0 -73 -21 -139t-71 -144l-72 39q24 49 35 87t14 79t3 97h112z" />
    <glyph glyph-name="Eng" unicode="&#x14a;" horiz-adv-x="683" 
d="M474 680h115v-649q0 -78 -24 -135t-83.5 -88t-166.5 -31v115q78 0 116 26t42 93q-62 124 -129 248.5t-143 234.5l8 -234v-260h-115v680h110q79 -103 149 -218t130 -237l-9 205v250z" />
    <glyph glyph-name="eng" unicode="&#x14b;" horiz-adv-x="584" 
d="M362 517q73 0 111 -46.5t38 -130.5v-344q0 -57 -18.5 -107t-66 -81t-134.5 -31v108q50 0 77 24t27 87v330q0 84 -69 84q-25 0 -57 -12t-76 -47v-351h-115v507h109v-68q47 41 89 59.5t85 18.5z" />
    <glyph glyph-name="Omacron" unicode="&#x14c;" horiz-adv-x="640" 
d="M575 412v-143q0 -130 -65 -204.5t-190 -74.5q-126 0 -190.5 74.5t-64.5 204.5v143q0 130 64.5 204t190.5 74q125 0 190 -74t65 -204zM452 412q0 82 -32 123.5t-100 41.5t-100 -41.5t-32 -123.5v-143q0 -82 32 -124t100 -42t100 42t32 124v143zM472 865v-83h-303v83h303z
" />
    <glyph glyph-name="omacron" unicode="&#x14d;" horiz-adv-x="544" 
d="M494 284v-60q0 -106 -58 -170t-164 -64t-164 64t-58 170v60q0 106 57.5 169.5t164.5 63.5t164.5 -63.5t57.5 -169.5zM376 284q0 61 -27 95.5t-77 34.5t-77 -34.5t-27 -95.5v-60q0 -61 27 -96t77 -35t77 35t27 96v60zM424 692v-83h-303v83h303z" />
    <glyph glyph-name="Obreve" unicode="&#x14e;" horiz-adv-x="640" 
d="M575 412v-143q0 -130 -65 -204.5t-190 -74.5q-126 0 -190.5 74.5t-64.5 204.5v143q0 130 64.5 204t190.5 74q125 0 190 -74t65 -204zM452 412q0 82 -32 123.5t-100 41.5t-100 -41.5t-32 -123.5v-143q0 -82 32 -124t100 -42t100 42t32 124v143zM320 839q22 0 34 14.5
t13 50.5h87q-5 -78 -41.5 -112t-92.5 -34q-55 0 -92 34t-42 112h87q2 -36 14 -50.5t33 -14.5z" />
    <glyph glyph-name="obreve" unicode="&#x14f;" horiz-adv-x="544" 
d="M494 284v-60q0 -106 -58 -170t-164 -64t-164 64t-58 170v60q0 106 57.5 169.5t164.5 63.5t164.5 -63.5t57.5 -169.5zM376 284q0 61 -27 95.5t-77 34.5t-77 -34.5t-27 -95.5v-60q0 -61 27 -96t77 -35t77 35t27 96v60zM272 666q22 0 34 14.5t13 50.5h87q-5 -78 -41.5 -112
t-92.5 -34q-55 0 -92 34t-42 112h87q2 -36 14 -50.5t33 -14.5z" />
    <glyph glyph-name="Ohungarumlaut" unicode="&#x150;" horiz-adv-x="640" 
d="M575 412v-143q0 -130 -65 -204.5t-190 -74.5q-126 0 -190.5 74.5t-64.5 204.5v143q0 130 64.5 204t190.5 74q125 0 190 -74t65 -204zM452 412q0 82 -32 123.5t-100 41.5t-100 -41.5t-32 -123.5v-143q0 -82 32 -124t100 -42t100 42t32 124v143zM291 752h-91l76 166l88 -46
zM441 752h-91l76 166l88 -46z" />
    <glyph glyph-name="ohungarumlaut" unicode="&#x151;" horiz-adv-x="544" 
d="M494 284v-60q0 -106 -58 -170t-164 -64t-164 64t-58 170v60q0 106 57.5 169.5t164.5 63.5t164.5 -63.5t57.5 -169.5zM376 284q0 61 -27 95.5t-77 34.5t-77 -34.5t-27 -95.5v-60q0 -61 27 -96t77 -35t77 35t27 96v60zM243 579h-91l76 166l88 -46zM393 579h-91l76 166
l88 -46z" />
    <glyph glyph-name="OE" unicode="&#x152;" horiz-adv-x="867" 
d="M65 412q0 132 64.5 200t185.5 68h494v-115h-264v-163h234v-115h-234v-172h274v-115h-504q-121 0 -185.5 68t-64.5 201v143zM320 115h105v450h-105q-70 0 -101 -35t-31 -118v-143q0 -84 31 -119t101 -35z" />
    <glyph glyph-name="oe" unicode="&#x153;" horiz-adv-x="847" 
d="M790 29q-52 -21 -98 -30t-87 -9q-59 0 -101.5 21.5t-68.5 60.5q-26 -39 -67.5 -60.5t-97.5 -21.5q-105 0 -162.5 64t-57.5 170v60q0 106 57 169.5t163 63.5q56 0 98 -21.5t67 -60.5q25 39 64 60.5t90 21.5q53 0 99.5 -21.5t76 -67t29.5 -116.5q0 -21 -3 -44.5t-10 -49.5
h-294q2 -62 31 -93t93 -31q34 0 70.5 8t75.5 24zM589 420q-46 0 -71 -29.5t-30 -84.5h192q1 5 1 9.5v8.5q0 48 -27 72t-65 24zM376 284q0 61 -27 95.5t-77 34.5t-77 -34.5t-27 -95.5v-60q0 -61 27 -96t77 -35t77 35t27 96v60z" />
    <glyph glyph-name="Racute" unicode="&#x154;" horiz-adv-x="609" 
d="M214 250v-250h-120v680h227q103 0 158.5 -52.5t55.5 -140.5v-43q0 -58 -25 -102t-72 -67q82 -140 140 -275h-137q-50 125 -119 250h-108zM321 570h-107v-210h107q44 0 67.5 22.5t23.5 61.5v43q0 38 -23.5 60.5t-67.5 22.5zM356 752h-101l96 166l108 -46z" />
    <glyph glyph-name="racute" unicode="&#x155;" horiz-adv-x="387" 
d="M365 402q-47 0 -89.5 -14.5t-81.5 -46.5v-341h-115v507h109v-78q51 48 91 68t86 20v-115zM271 579h-101l96 166l108 -46z" />
    <glyph glyph-name="uni0156" unicode="&#x156;" horiz-adv-x="609" 
d="M214 250v-250h-120v680h227q103 0 158.5 -52.5t55.5 -140.5v-43q0 -58 -25 -102t-72 -67q82 -140 140 -275h-137q-50 125 -119 250h-108zM321 570h-107v-210h107q44 0 67.5 22.5t23.5 61.5v43q0 38 -23.5 60.5t-67.5 22.5zM310 -256l-73 17l26 162h120z" />
    <glyph glyph-name="uni0157" unicode="&#x157;" horiz-adv-x="387" 
d="M365 402q-47 0 -89.5 -14.5t-81.5 -46.5v-341h-115v507h109v-78q51 48 91 68t86 20v-115zM123 -256l-73 17l26 162h120z" />
    <glyph glyph-name="Rcaron" unicode="&#x158;" horiz-adv-x="609" 
d="M214 250v-250h-120v680h227q103 0 158.5 -52.5t55.5 -140.5v-43q0 -58 -25 -102t-72 -67q82 -140 140 -275h-137q-50 125 -119 250h-108zM321 570h-107v-210h107q44 0 67.5 22.5t23.5 61.5v43q0 38 -23.5 60.5t-67.5 22.5zM456 913l-96 -161h-112l-96 161h93l61 -80
l61 80h89z" />
    <glyph glyph-name="rcaron" unicode="&#x159;" horiz-adv-x="387" 
d="M365 402q-47 0 -89.5 -14.5t-81.5 -46.5v-341h-115v507h109v-78q51 48 91 68t86 20v-115zM371 740l-96 -161h-112l-96 161h93l61 -80l61 80h89z" />
    <glyph glyph-name="Sacute" unicode="&#x15a;" horiz-adv-x="518" 
d="M242 101q116 0 116 86q0 35 -17.5 55t-64.5 35l-82 27q-147 48 -147 193q0 84 52.5 138.5t164.5 54.5q47 0 93 -10.5t98 -33.5l-37 -103q-48 19 -81.5 27.5t-68.5 8.5q-46 0 -72.5 -16.5t-26.5 -59.5q0 -32 18.5 -52.5t61.5 -34.5l82 -27q74 -25 111.5 -72.5t37.5 -125.5
q0 -90 -57 -145.5t-179 -55.5q-48 0 -99.5 11.5t-112.5 39.5l37 103q56 -24 95.5 -33.5t77.5 -9.5zM318 752h-101l96 166l108 -46z" />
    <glyph glyph-name="sacute" unicode="&#x15b;" horiz-adv-x="456" 
d="M221 90q37 0 61 12.5t24 37.5q0 22 -15.5 34.5t-55.5 22.5l-57 15q-66 17 -97.5 57t-31.5 95q0 65 45 109t139 44q38 0 80 -9t88 -29l-33 -98q-42 20 -76 28t-60 8q-71 0 -71 -48q0 -19 12.5 -30t46.5 -20l57 -15q73 -19 106.5 -58t33.5 -98q0 -70 -47.5 -114t-149.5 -44
q-87 0 -183 40l31 95q47 -19 85 -27t68 -8zM281 579h-101l96 166l108 -46z" />
    <glyph glyph-name="Scircumflex" unicode="&#x15c;" horiz-adv-x="518" 
d="M242 101q116 0 116 86q0 35 -17.5 55t-64.5 35l-82 27q-147 48 -147 193q0 84 52.5 138.5t164.5 54.5q47 0 93 -10.5t98 -33.5l-37 -103q-48 19 -81.5 27.5t-68.5 8.5q-46 0 -72.5 -16.5t-26.5 -59.5q0 -32 18.5 -52.5t61.5 -34.5l82 -27q74 -25 111.5 -72.5t37.5 -125.5
q0 -90 -57 -145.5t-179 -55.5q-48 0 -99.5 11.5t-112.5 39.5l37 103q56 -24 95.5 -33.5t77.5 -9.5zM325 752l-61 80l-61 -80h-89l96 161h112l96 -161h-93z" />
    <glyph glyph-name="scircumflex" unicode="&#x15d;" horiz-adv-x="456" 
d="M221 90q37 0 61 12.5t24 37.5q0 22 -15.5 34.5t-55.5 22.5l-57 15q-66 17 -97.5 57t-31.5 95q0 65 45 109t139 44q38 0 80 -9t88 -29l-33 -98q-42 20 -76 28t-60 8q-71 0 -71 -48q0 -19 12.5 -30t46.5 -20l57 -15q73 -19 106.5 -58t33.5 -98q0 -70 -47.5 -114t-149.5 -44
q-87 0 -183 40l31 95q47 -19 85 -27t68 -8zM288 579l-61 80l-61 -80h-89l96 161h112l96 -161h-93z" />
    <glyph glyph-name="Scedilla" unicode="&#x15e;" horiz-adv-x="518" 
d="M361 -124q0 -49 -35 -74t-91 -25q-24 0 -44 4t-41 11l13 69q42 -11 72 -11q21 0 30 7t9 17q0 9 -8 16.5t-31 7.5q-12 0 -27 -3l-25 32l11 66q-37 5 -77 16.5t-85 31.5l37 103q56 -24 95.5 -33.5t77.5 -9.5q116 0 116 86q0 35 -17.5 55t-64.5 35l-82 27q-147 48 -147 193
q0 84 52.5 138.5t164.5 54.5q47 0 93 -10.5t98 -33.5l-37 -103q-48 19 -81.5 27.5t-68.5 8.5q-46 0 -72.5 -16.5t-26.5 -59.5q0 -32 18.5 -52.5t61.5 -34.5l82 -27q74 -25 111.5 -72.5t37.5 -125.5q0 -85 -51 -139.5t-159 -60.5l-5 -30q50 -2 73 -26t23 -59z" />
    <glyph glyph-name="scedilla" unicode="&#x15f;" horiz-adv-x="456" 
d="M326 -124q0 -49 -35 -74t-91 -25q-24 0 -44 4t-41 11l13 69q42 -11 72 -11q21 0 30 7t9 17q0 9 -8 16.5t-31 7.5q-12 0 -27 -3l-25 32l11 68q-29 5 -59.5 13.5t-62.5 21.5l31 95q47 -19 85 -27t68 -8q37 0 61 12.5t24 37.5q0 22 -15.5 34.5t-55.5 22.5l-57 15
q-66 17 -97.5 57t-31.5 95q0 65 45 109t139 44q38 0 80 -9t88 -29l-33 -98q-42 20 -76 28t-60 8q-71 0 -71 -48q0 -19 12.5 -30t46.5 -20l57 -15q73 -19 106.5 -58t33.5 -98q0 -67 -43.5 -110.5t-138.5 -47.5l-5 -29q50 -2 73 -26t23 -59z" />
    <glyph glyph-name="Scaron" unicode="&#x160;" horiz-adv-x="518" 
d="M242 101q116 0 116 86q0 35 -17.5 55t-64.5 35l-82 27q-147 48 -147 193q0 84 52.5 138.5t164.5 54.5q47 0 93 -10.5t98 -33.5l-37 -103q-48 19 -81.5 27.5t-68.5 8.5q-46 0 -72.5 -16.5t-26.5 -59.5q0 -32 18.5 -52.5t61.5 -34.5l82 -27q74 -25 111.5 -72.5t37.5 -125.5
q0 -90 -57 -145.5t-179 -55.5q-48 0 -99.5 11.5t-112.5 39.5l37 103q56 -24 95.5 -33.5t77.5 -9.5zM418 913l-96 -161h-112l-96 161h93l61 -80l61 80h89z" />
    <glyph glyph-name="scaron" unicode="&#x161;" horiz-adv-x="456" 
d="M221 90q37 0 61 12.5t24 37.5q0 22 -15.5 34.5t-55.5 22.5l-57 15q-66 17 -97.5 57t-31.5 95q0 65 45 109t139 44q38 0 80 -9t88 -29l-33 -98q-42 20 -76 28t-60 8q-71 0 -71 -48q0 -19 12.5 -30t46.5 -20l57 -15q73 -19 106.5 -58t33.5 -98q0 -70 -47.5 -114t-149.5 -44
q-87 0 -183 40l31 95q47 -19 85 -27t68 -8zM381 740l-96 -161h-112l-96 161h93l61 -80l61 80h89z" />
    <glyph glyph-name="uni0162" unicode="&#x162;" horiz-adv-x="526" 
d="M13 565v115h500v-115h-190v-565h-120v565h-190zM251 -256l-73 17l26 162h120z" />
    <glyph glyph-name="uni0163" unicode="&#x163;" horiz-adv-x="397" 
d="M384 17q-26 -12 -60 -19.5t-69 -7.5q-58 0 -93 24t-50.5 67t-15.5 98v228h-82v100h82v132h115v-132h158v-100h-158v-228q0 -46 17.5 -63.5t50.5 -17.5q16 0 34.5 3.5t41.5 12.5zM227 -256l-73 17l26 162h120z" />
    <glyph glyph-name="Tcaron" unicode="&#x164;" horiz-adv-x="526" 
d="M13 565v115h500v-115h-190v-565h-120v565h-190zM414 913l-96 -161h-112l-96 161h93l61 -80l61 80h89z" />
    <glyph glyph-name="tcaron" unicode="&#x165;" horiz-adv-x="397" 
d="M384 17q-26 -12 -60 -19.5t-69 -7.5q-58 0 -93 24t-50.5 67t-15.5 98v228h-82v100h82v132h115v-132h158v-100h-158v-228q0 -46 17.5 -63.5t50.5 -17.5q16 0 34.5 3.5t41.5 12.5zM353 571h-77v194h113z" />
    <glyph glyph-name="Tbar" unicode="&#x166;" horiz-adv-x="526" 
d="M435 279h-112v-279h-120v279h-112v87h112v199h-190v115h500v-115h-190v-199h112v-87z" />
    <glyph glyph-name="tbar" unicode="&#x167;" horiz-adv-x="420" 
d="M402 17q-26 -12 -60 -19.5t-69 -7.5q-58 0 -93 24t-50.5 67t-15.5 98v48h-82v75h82v105h-82v100h82v132h115v-132h158v-100h-158v-105h119v-75h-119v-48q0 -46 17.5 -63.5t50.5 -17.5q16 0 34.5 3.5t41.5 12.5z" />
    <glyph glyph-name="Utilde" unicode="&#x168;" horiz-adv-x="646" 
d="M78 680h123v-436q0 -66 29 -103.5t93 -37.5t93 37.5t29 103.5v436h123v-436q0 -115 -61 -184.5t-184 -69.5q-124 0 -184.5 69.5t-60.5 184.5v436zM382 761q-24 0 -40.5 11t-28.5 25t-22 25t-21 11q-9 0 -13 -12.5t-5 -51.5h-81q0 87 26.5 120.5t66.5 33.5q24 0 40.5 -11
t28.5 -25t22 -25t21 -11q9 0 13 12.5t5 51.5h81q0 -88 -26 -121t-67 -33z" />
    <glyph glyph-name="utilde" unicode="&#x169;" horiz-adv-x="569" 
d="M381 0v67q-46 -40 -86 -58.5t-81 -18.5q-68 0 -105 46.5t-37 130.5v340h115v-326q0 -84 62 -84q25 0 54.5 12t71.5 46v352h115v-507h-109zM340 588q-24 0 -40.5 11t-28.5 25t-22 25t-21 11q-9 0 -13 -12.5t-5 -51.5h-81q0 87 26.5 120.5t66.5 33.5q24 0 40.5 -11
t28.5 -25t22 -25t21 -11q9 0 13 12.5t5 51.5h81q0 -88 -26 -121t-67 -33z" />
    <glyph glyph-name="Umacron" unicode="&#x16a;" horiz-adv-x="646" 
d="M78 680h123v-436q0 -66 29 -103.5t93 -37.5t93 37.5t29 103.5v436h123v-436q0 -115 -61 -184.5t-184 -69.5q-124 0 -184.5 69.5t-60.5 184.5v436zM475 865v-83h-303v83h303z" />
    <glyph glyph-name="umacron" unicode="&#x16b;" horiz-adv-x="569" 
d="M381 0v67q-46 -40 -86 -58.5t-81 -18.5q-68 0 -105 46.5t-37 130.5v340h115v-326q0 -84 62 -84q25 0 54.5 12t71.5 46v352h115v-507h-109zM432 692v-83h-303v83h303z" />
    <glyph glyph-name="Ubreve" unicode="&#x16c;" horiz-adv-x="646" 
d="M78 680h123v-436q0 -66 29 -103.5t93 -37.5t93 37.5t29 103.5v436h123v-436q0 -115 -61 -184.5t-184 -69.5q-124 0 -184.5 69.5t-60.5 184.5v436zM323 839q22 0 34 14.5t13 50.5h87q-5 -78 -41.5 -112t-92.5 -34q-55 0 -92 34t-42 112h87q2 -36 14 -50.5t33 -14.5z" />
    <glyph glyph-name="ubreve" unicode="&#x16d;" horiz-adv-x="569" 
d="M381 0v67q-46 -40 -86 -58.5t-81 -18.5q-68 0 -105 46.5t-37 130.5v340h115v-326q0 -84 62 -84q25 0 54.5 12t71.5 46v352h115v-507h-109zM281 666q22 0 34 14.5t13 50.5h87q-5 -78 -41.5 -112t-92.5 -34q-55 0 -92 34t-42 112h87q2 -36 14 -50.5t33 -14.5z" />
    <glyph glyph-name="Uring" unicode="&#x16e;" horiz-adv-x="646" 
d="M78 680h123v-436q0 -66 29 -103.5t93 -37.5t93 37.5t29 103.5v436h123v-436q0 -115 -61 -184.5t-184 -69.5q-124 0 -184.5 69.5t-60.5 184.5v436zM443 862v-11q0 -51 -32.5 -83t-87.5 -32t-87.5 32t-32.5 83v11q0 51 32.5 82.5t87.5 31.5t87.5 -31.5t32.5 -82.5zM372 862
q0 22 -13 35t-36 13q-22 0 -35.5 -13t-13.5 -35v-11q0 -22 13.5 -35t35.5 -13q23 0 36 13t13 35v11z" />
    <glyph glyph-name="uring" unicode="&#x16f;" horiz-adv-x="569" 
d="M381 0v67q-46 -40 -86 -58.5t-81 -18.5q-68 0 -105 46.5t-37 130.5v340h115v-326q0 -84 62 -84q25 0 54.5 12t71.5 46v352h115v-507h-109zM401 689v-11q0 -51 -32.5 -83t-87.5 -32t-87.5 32t-32.5 83v11q0 51 32.5 82.5t87.5 31.5t87.5 -31.5t32.5 -82.5zM330 689
q0 22 -13 35t-36 13q-22 0 -35.5 -13t-13.5 -35v-11q0 -22 13.5 -35t35.5 -13q23 0 36 13t13 35v11z" />
    <glyph glyph-name="Uhungarumlaut" unicode="&#x170;" horiz-adv-x="646" 
d="M78 680h123v-436q0 -66 29 -103.5t93 -37.5t93 37.5t29 103.5v436h123v-436q0 -115 -61 -184.5t-184 -69.5q-124 0 -184.5 69.5t-60.5 184.5v436zM294 752h-91l76 166l88 -46zM444 752h-91l76 166l88 -46z" />
    <glyph glyph-name="uhungarumlaut" unicode="&#x171;" horiz-adv-x="569" 
d="M381 0v67q-46 -40 -86 -58.5t-81 -18.5q-68 0 -105 46.5t-37 130.5v340h115v-326q0 -84 62 -84q25 0 54.5 12t71.5 46v352h115v-507h-109zM252 579h-91l76 166l88 -46zM402 579h-91l76 166l88 -46z" />
    <glyph glyph-name="Uogonek" unicode="&#x172;" horiz-adv-x="646" 
d="M447 -207q-41 -16 -81 -16q-52 0 -82 25t-30 68q0 29 16 57.5t50 62.5q-122 1 -182 70t-60 184v436h123v-436q0 -66 29 -103.5t93 -37.5t93 37.5t29 103.5v436h123v-436q0 -61 -16.5 -110.5t-51.5 -81.5q-58 -51 -89.5 -81t-44 -47.5t-12.5 -31.5q0 -25 30 -25q20 0 47 9
z" />
    <glyph glyph-name="uogonek" unicode="&#x173;" horiz-adv-x="569" 
d="M490 -207q-41 -16 -81 -16q-52 0 -82 25t-30 66q0 30 19 61.5t65 70.5v67q-46 -40 -86 -58.5t-81 -18.5q-68 0 -105 46.5t-37 130.5v340h115v-326q0 -84 62 -84q25 0 54.5 12t71.5 46v352h115v-507q-55 -46 -74 -70t-19 -38q0 -25 30 -25q20 0 47 9z" />
    <glyph glyph-name="Wcircumflex" unicode="&#x174;" horiz-adv-x="867" 
d="M208 411l38 -252l136 521h108l135 -517l42 248l52 269h122l-153 -680h-123l-131 506l-132 -506h-123l-153 680h130zM492 752l-61 80l-61 -80h-89l96 161h112l96 -161h-93z" />
    <glyph glyph-name="wcircumflex" unicode="&#x175;" horiz-adv-x="737" 
d="M710 507l-130 -507h-125l-84 381l-89 -381h-125l-130 507h118l49 -201l34 -183l86 384h116l89 -388l32 186l48 202h111zM427 579l-61 80l-61 -80h-89l96 161h112l96 -161h-93z" />
    <glyph glyph-name="Ycircumflex" unicode="&#x176;" horiz-adv-x="544" 
d="M541 680l-208 -407v-273h-120v271l-210 409h128l147 -290l139 290h124zM330 752l-61 80l-61 -80h-89l96 161h112l96 -161h-93z" />
    <glyph glyph-name="ycircumflex" unicode="&#x177;" horiz-adv-x="499" 
d="M284 -50q-33 -92 -84 -132.5t-140 -40.5v115q53 2 83.5 23.5t45.5 59.5l9 23l-181 509h114l87 -253l34 -107l33 107l83 253h114zM308 579l-61 80l-61 -80h-89l96 161h112l96 -161h-93z" />
    <glyph glyph-name="Ydieresis" unicode="&#x178;" horiz-adv-x="544" 
d="M541 680l-208 -407v-273h-120v271l-210 409h128l147 -290l139 290h124zM230 782h-109v107h109v-107zM424 782h-109v107h109v-107z" />
    <glyph glyph-name="Zacute" unicode="&#x179;" horiz-adv-x="509" 
d="M473 115v-115h-435v105l284 460h-274v115h415v-105l-284 -460h294zM306 752h-101l96 166l108 -46z" />
    <glyph glyph-name="zacute" unicode="&#x17a;" horiz-adv-x="432" 
d="M397 100v-100h-362v90l214 317h-204v100h342v-90l-214 -317h224zM265 579h-101l96 166l108 -46z" />
    <glyph glyph-name="Zdotaccent" unicode="&#x17b;" horiz-adv-x="509" 
d="M473 115v-115h-435v105l284 460h-274v115h415v-105l-284 -460h294zM315 776h-121v119h121v-119z" />
    <glyph glyph-name="zdotaccent" unicode="&#x17c;" horiz-adv-x="432" 
d="M397 100v-100h-362v90l214 317h-204v100h342v-90l-214 -317h224zM275 603h-121v119h121v-119z" />
    <glyph glyph-name="Zcaron" unicode="&#x17d;" horiz-adv-x="509" 
d="M473 115v-115h-435v105l284 460h-274v115h415v-105l-284 -460h294zM406 913l-96 -161h-112l-96 161h93l61 -80l61 80h89z" />
    <glyph glyph-name="zcaron" unicode="&#x17e;" horiz-adv-x="432" 
d="M397 100v-100h-362v90l214 317h-204v100h342v-90l-214 -317h224zM365 740l-96 -161h-112l-96 161h93l61 -80l61 80h89z" />
    <glyph glyph-name="florin" unicode="&#x192;" horiz-adv-x="393" 
d="M214 -33q-5 -55 -19.5 -98t-48 -67.5t-95.5 -24.5q-27 0 -58 5t-57 15l28 99q20 -7 37.5 -9t28.5 -2q35 0 50 18t19 64l30 340h-116v100h125l14 153q5 56 19.5 98.5t48 67t95.5 24.5q27 0 58.5 -5t56.5 -15l-28 -99q-19 7 -37 9t-29 2q-34 0 -49 -17.5t-20 -64.5
l-14 -153h115v-100h-124z" />
    <glyph glyph-name="uni0218" unicode="&#x218;" horiz-adv-x="518" 
d="M242 101q116 0 116 86q0 35 -17.5 55t-64.5 35l-82 27q-147 48 -147 193q0 84 52.5 138.5t164.5 54.5q47 0 93 -10.5t98 -33.5l-37 -103q-48 19 -81.5 27.5t-68.5 8.5q-46 0 -72.5 -16.5t-26.5 -59.5q0 -32 18.5 -52.5t61.5 -34.5l82 -27q74 -25 111.5 -72.5t37.5 -125.5
q0 -90 -57 -145.5t-179 -55.5q-48 0 -99.5 11.5t-112.5 39.5l37 103q56 -24 95.5 -33.5t77.5 -9.5zM248 -256l-73 17l26 162h120z" />
    <glyph glyph-name="uni0219" unicode="&#x219;" horiz-adv-x="456" 
d="M221 90q37 0 61 12.5t24 37.5q0 22 -15.5 34.5t-55.5 22.5l-57 15q-66 17 -97.5 57t-31.5 95q0 65 45 109t139 44q38 0 80 -9t88 -29l-33 -98q-42 20 -76 28t-60 8q-71 0 -71 -48q0 -19 12.5 -30t46.5 -20l57 -15q73 -19 106.5 -58t33.5 -98q0 -70 -47.5 -114t-149.5 -44
q-87 0 -183 40l31 95q47 -19 85 -27t68 -8zM216 -256l-73 17l26 162h120z" />
    <glyph glyph-name="uni021A" unicode="&#x21a;" horiz-adv-x="526" 
d="M13 565v115h500v-115h-190v-565h-120v565h-190zM251 -256l-73 17l26 162h120z" />
    <glyph glyph-name="uni021B" unicode="&#x21b;" horiz-adv-x="397" 
d="M384 17q-26 -12 -60 -19.5t-69 -7.5q-58 0 -93 24t-50.5 67t-15.5 98v228h-82v100h82v132h115v-132h158v-100h-158v-228q0 -46 17.5 -63.5t50.5 -17.5q16 0 34.5 3.5t41.5 12.5zM227 -256l-73 17l26 162h120z" />
    <glyph glyph-name="uni0237" unicode="&#x237;" horiz-adv-x="273" 
d="M-25 -223v108q50 0 77 24t27 87v511h115v-511q0 -57 -18.5 -107t-66 -81t-134.5 -31z" />
    <glyph glyph-name="circumflex" unicode="&#x2c6;" horiz-adv-x="500" 
d="M309 579l-61 80l-61 -80h-89l96 161h112l96 -161h-93z" />
    <glyph glyph-name="caron" unicode="&#x2c7;" horiz-adv-x="500" 
d="M402 740l-96 -161h-112l-96 161h93l61 -80l61 80h89z" />
    <glyph glyph-name="breve" unicode="&#x2d8;" horiz-adv-x="500" 
d="M250 666q22 0 34 14.5t13 50.5h87q-5 -78 -41.5 -112t-92.5 -34q-55 0 -92 34t-42 112h87q2 -36 14 -50.5t33 -14.5z" />
    <glyph glyph-name="dotaccent" unicode="&#x2d9;" horiz-adv-x="500" 
d="M311 603h-121v119h121v-119z" />
    <glyph glyph-name="ring" unicode="&#x2da;" horiz-adv-x="500" 
d="M370 689v-11q0 -51 -32.5 -83t-87.5 -32t-87.5 32t-32.5 83v11q0 51 32.5 82.5t87.5 31.5t87.5 -31.5t32.5 -82.5zM299 689q0 22 -13 35t-36 13q-22 0 -35.5 -13t-13.5 -35v-11q0 -22 13.5 -35t35.5 -13q23 0 36 13t13 35v11z" />
    <glyph glyph-name="ogonek" unicode="&#x2db;" horiz-adv-x="500" 
d="M276 -133q20 0 47 9l16 -83q-41 -16 -81 -16q-52 0 -82 25t-30 66q0 38 31.5 78.5t108.5 97.5l53 -44q-55 -46 -74 -70t-19 -38q0 -25 30 -25z" />
    <glyph glyph-name="tilde" unicode="&#x2dc;" horiz-adv-x="500" 
d="M309 588q-24 0 -40.5 11t-28.5 25t-22 25t-21 11q-9 0 -13 -12.5t-5 -51.5h-81q0 87 26.5 120.5t66.5 33.5q24 0 40.5 -11t28.5 -25t22 -25t21 -11q9 0 13 12.5t5 51.5h81q0 -88 -26 -121t-67 -33z" />
    <glyph glyph-name="hungarumlaut" unicode="&#x2dd;" horiz-adv-x="500" 
d="M221 579h-91l76 166l88 -46zM371 579h-91l76 166l88 -46z" />
    <glyph glyph-name="pi" unicode="&#x3c0;" horiz-adv-x="584" 
d="M15 407v100h551v-100h-82v-264q0 -15 8.5 -28.5t32.5 -13.5h41v-106h-53q-59 0 -90.5 21.5t-42.5 55.5t-11 71v264h-157v-407h-115v407h-82z" />
    <glyph glyph-name="Wgrave" unicode="&#x1e80;" horiz-adv-x="867" 
d="M208 411l38 -252l136 521h108l135 -517l42 248l52 269h122l-153 -680h-123l-131 506l-132 -506h-123l-153 680h130zM383 752l-103 120l108 46l96 -166h-101z" />
    <glyph glyph-name="wgrave" unicode="&#x1e81;" horiz-adv-x="737" 
d="M710 507l-130 -507h-125l-84 381l-89 -381h-125l-130 507h118l49 -201l34 -183l86 384h116l89 -388l32 186l48 202h111zM318 579l-103 120l108 46l96 -166h-101z" />
    <glyph glyph-name="Wacute" unicode="&#x1e82;" horiz-adv-x="867" 
d="M208 411l38 -252l136 521h108l135 -517l42 248l52 269h122l-153 -680h-123l-131 506l-132 -506h-123l-153 680h130zM485 752h-101l96 166l108 -46z" />
    <glyph glyph-name="wacute" unicode="&#x1e83;" horiz-adv-x="737" 
d="M710 507l-130 -507h-125l-84 381l-89 -381h-125l-130 507h118l49 -201l34 -183l86 384h116l89 -388l32 186l48 202h111zM420 579h-101l96 166l108 -46z" />
    <glyph glyph-name="Wdieresis" unicode="&#x1e84;" horiz-adv-x="867" 
d="M208 411l38 -252l136 521h108l135 -517l42 248l52 269h122l-153 -680h-123l-131 506l-132 -506h-123l-153 680h130zM391 782h-109v107h109v-107zM585 782h-109v107h109v-107z" />
    <glyph glyph-name="wdieresis" unicode="&#x1e85;" horiz-adv-x="737" 
d="M710 507l-130 -507h-125l-84 381l-89 -381h-125l-130 507h118l49 -201l34 -183l86 384h116l89 -388l32 186l48 202h111zM326 609h-109v107h109v-107zM520 609h-109v107h109v-107z" />
    <glyph glyph-name="uni1E9E" unicode="&#x1e9e;" horiz-adv-x="611" 
d="M574 166q0 -79 -48 -127.5t-137 -48.5q-34 0 -73 8t-79 26l30 103q33 -16 62.5 -21t51.5 -5q39 0 55 18.5t16 46.5v14q0 37 -16 56.5t-53 35.5l-91 39v83l87 168q-36 17 -78 17q-52 0 -79.5 -28.5t-27.5 -93.5v-457h-120v457q0 113 57.5 173t162.5 60q62 0 112 -20
t86 -50v-83l-84 -150l28 -12q47 -20 77.5 -45t45.5 -60.5t15 -89.5v-14z" />
    <glyph glyph-name="Ygrave" unicode="&#x1ef2;" horiz-adv-x="544" 
d="M541 680l-208 -407v-273h-120v271l-210 409h128l147 -290l139 290h124zM221 752l-103 120l108 46l96 -166h-101z" />
    <glyph glyph-name="ygrave" unicode="&#x1ef3;" horiz-adv-x="499" 
d="M284 -50q-33 -92 -84 -132.5t-140 -40.5v115q53 2 83.5 23.5t45.5 59.5l9 23l-181 509h114l87 -253l34 -107l33 107l83 253h114zM199 579l-103 120l108 46l96 -166h-101z" />
    <glyph glyph-name="endash" unicode="&#x2013;" horiz-adv-x="604" 
d="M50 265v100h504v-100h-504z" />
    <glyph glyph-name="emdash" unicode="&#x2014;" horiz-adv-x="804" 
d="M50 265v100h704v-100h-704z" />
    <glyph glyph-name="quoteleft" unicode="&#x2018;" horiz-adv-x="211" 
d="M31 388v19q0 74 21.5 139.5t70.5 143.5l72 -39q-23 -49 -34.5 -87t-14.5 -78.5t-3 -97.5h-112z" />
    <glyph glyph-name="quoteright" unicode="&#x2019;" horiz-adv-x="211" 
d="M180 680v-19q0 -73 -21 -139t-71 -144l-72 39q24 49 35 87t14 79t3 97h112z" />
    <glyph glyph-name="quotesinglbase" unicode="&#x201a;" horiz-adv-x="211" 
d="M162 119v-19q0 -73 -21 -139t-71 -144l-72 39q24 49 35 87t14 78.5t3 97.5h112z" />
    <glyph glyph-name="quotedblleft" unicode="&#x201c;" horiz-adv-x="396" 
d="M216 388v19q0 74 21.5 139.5t70.5 143.5l72 -39q-23 -49 -34.5 -87t-14.5 -78.5t-3 -97.5h-112zM31 388v19q0 74 21.5 139.5t70.5 143.5l72 -39q-23 -49 -34.5 -87t-14.5 -78.5t-3 -97.5h-112z" />
    <glyph glyph-name="quotedblright" unicode="&#x201d;" horiz-adv-x="396" 
d="M180 680v-19q0 -73 -21 -139t-71 -144l-72 39q24 49 35 87t14 79t3 97h112zM365 680v-19q0 -73 -21 -139t-71 -144l-72 39q24 49 35 87t14 79t3 97h112z" />
    <glyph glyph-name="quotedblbase" unicode="&#x201e;" horiz-adv-x="396" 
d="M162 119v-19q0 -73 -21 -139t-71 -144l-72 39q24 49 35 87t14 78.5t3 97.5h112zM347 119v-19q0 -73 -21 -139t-71 -144l-72 39q24 49 35 87t14 78.5t3 97.5h112z" />
    <glyph glyph-name="dagger" unicode="&#x2020;" horiz-adv-x="433" 
d="M358 422l-102 17l17 -131v-109l-23 -342h-70l-22 342v109l18 131l-101 -16h-60v109h60l100 -16l-16 104v60h115v-60l-17 -105l101 16h60v-109h-60z" />
    <glyph glyph-name="daggerdbl" unicode="&#x2021;" horiz-adv-x="455" 
d="M284 -83v-60h-115v60l17 105l-101 -16h-60v109h60l102 -17l-17 131v79l18 131l-101 -16h-60v109h60l100 -16l-16 104v60h115v-60l-17 -105l101 16h60v-109h-60l-102 17l17 -131v-79l-18 -131l101 16h60v-109h-60l-100 16z" />
    <glyph glyph-name="bullet" unicode="&#x2022;" horiz-adv-x="243" 
d="M194 262h-145v143h145v-143z" />
    <glyph glyph-name="ellipsis" unicode="&#x2026;" horiz-adv-x="611" 
d="M166 0h-121v119h121v-119zM366 0h-121v119h121v-119zM566 0h-121v119h121v-119z" />
    <glyph glyph-name="perthousand" unicode="&#x2030;" horiz-adv-x="1075" 
d="M310 546v-31q0 -65 -34.5 -102.5t-102.5 -37.5t-102.5 37.5t-34.5 102.5v31q0 65 34.5 102t102.5 37t102.5 -37t34.5 -102zM485 680h90l-329 -680h-90zM230 546q0 64 -57 64q-56 0 -56 -64v-31q0 -64 56 -64q57 0 57 64v31zM696 166v-31q0 -65 -34.5 -102.5t-102.5 -37.5
t-102.5 37.5t-34.5 102.5v31q0 65 34.5 102t102.5 37t102.5 -37t34.5 -102zM1039 166v-31q0 -65 -34.5 -102.5t-102.5 -37.5t-102.5 37.5t-34.5 102.5v31q0 65 34.5 102t102.5 37t102.5 -37t34.5 -102zM616 166q0 64 -57 64q-56 0 -56 -64v-31q0 -64 56 -64q57 0 57 64v31z
M959 166q0 64 -57 64q-56 0 -56 -64v-31q0 -64 56 -64q57 0 57 64v31z" />
    <glyph glyph-name="guilsinglleft" unicode="&#x2039;" horiz-adv-x="391" 
d="M338 134v-120l-296 195v77l296 192v-116l-184 -113z" />
    <glyph glyph-name="guilsinglright" unicode="&#x203a;" horiz-adv-x="391" 
d="M349 206l-296 -192v116l184 113l-184 115v120l296 -195v-77z" />
    <glyph glyph-name="fraction" unicode="&#x2044;" horiz-adv-x="111" 
d="M175 680h90l-329 -680h-90z" />
    <glyph glyph-name="uni2070" unicode="&#x2070;" horiz-adv-x="326" 
d="M293 651v-71q0 -65 -33 -102.5t-97 -37.5t-97 37.5t-33 102.5v71q0 65 33 102t97 37q65 0 97.5 -37t32.5 -102zM213 651q0 64 -50 64q-49 0 -49 -64v-71q0 -64 49 -64q50 0 50 64v71z" />
    <glyph glyph-name="uni2074" unicode="&#x2074;" horiz-adv-x="279" 
d="M268 512h-34v-67h-73v67h-148v64q35 53 65 105t49 104h85q-19 -51 -48 -101.5t-65 -102.5h62v46h73v-46h34v-69z" />
    <glyph glyph-name="uni2075" unicode="&#x2075;" horiz-adv-x="276" 
d="M36 621l10 164h191v-69h-126l-3 -58q15 3 33 3q52 0 81.5 -25t29.5 -74v-14q0 -44 -28.5 -76t-96.5 -32q-25 0 -51 4.5t-56 17.5l21 71q25 -10 45.5 -13.5t38.5 -3.5q47 0 47 33v14q0 14 -10.5 23t-33.5 9q-25 0 -53 -11z" />
    <glyph glyph-name="uni2076" unicode="&#x2076;" horiz-adv-x="303" 
d="M278 545q0 -46 -31 -75.5t-86 -29.5q-60 0 -93.5 37.5t-33.5 103.5v70q0 71 35 105t98 34q22 0 46 -4t53 -15l-21 -71q-22 10 -41 13t-35 3q-27 0 -43 -15t-16 -50v-14q32 27 75 27q41 0 67 -27t26 -77v-15zM161 595q-27 0 -51 -21q3 -61 51 -61q39 0 39 32v15
q0 16 -10 25.5t-29 9.5z" />
    <glyph glyph-name="uni2077" unicode="&#x2077;" horiz-adv-x="253" 
d="M239 714q-32 -68 -57 -135t-38 -134h-83q13 68 38 134t56 130h-147v76h231v-71z" />
    <glyph glyph-name="uni2078" unicode="&#x2078;" horiz-adv-x="303" 
d="M274 542q0 -43 -31 -72.5t-94 -29.5q-64 0 -92 28t-28 65q0 43 50 76q-21 14 -32.5 34.5t-11.5 48.5q0 41 29 69.5t86 28.5q58 0 87.5 -26.5t29.5 -65.5q0 -40 -44 -70q51 -28 51 -86zM145 657l25 -8q11 11 15.5 21.5t4.5 20.5q0 29 -39 29t-39 -29q0 -23 33 -34z
M106 542q0 -14 12 -23t34 -9q45 0 45 31q0 11 -8.5 20.5t-28.5 15.5l-27 8q-27 -22 -27 -43z" />
    <glyph glyph-name="uni2079" unicode="&#x2079;" horiz-adv-x="303" 
d="M269 579q0 -70 -35 -104.5t-98 -34.5q-22 0 -46 4t-53 15l21 71q23 -10 41.5 -13t34.5 -3q27 0 43 15t16 50v14q-31 -27 -75 -27q-40 0 -66.5 27.5t-26.5 76.5v15q0 46 31 75.5t86 29.5q60 0 93.5 -37.5t33.5 -103.5v-70zM103 670q0 -16 10 -25.5t29 -9.5q27 0 51 21
q-3 61 -51 61q-39 0 -39 -32v-15z" />
    <glyph glyph-name="uni2080" unicode="&#x2080;" horiz-adv-x="326" 
d="M293 101v-71q0 -65 -33 -102.5t-97 -37.5t-97 37.5t-33 102.5v71q0 65 33 102t97 37q65 0 97.5 -37t32.5 -102zM213 101q0 64 -50 64q-49 0 -49 -64v-71q0 -64 49 -64q50 0 50 64v71z" />
    <glyph glyph-name="uni2081" unicode="&#x2081;" horiz-adv-x="220" 
d="M17 187l96 48h60v-340h-79v252l-47 -23z" />
    <glyph glyph-name="uni2082" unicode="&#x2082;" horiz-adv-x="269" 
d="M242 -105h-221v68q0 50 22 78t53 41l34 15q20 9 27 18t7 20v3q0 27 -43 27q-18 0 -36.5 -5t-44.5 -14l-19 71q29 13 54 18t49 5q65 0 92 -29t27 -70v-9q0 -34 -18.5 -57t-57.5 -40l-34 -15q-17 -7 -24 -18.5t-9 -29.5h142v-77z" />
    <glyph glyph-name="uni2083" unicode="&#x2083;" horiz-adv-x="275" 
d="M243 -12q0 -40 -28.5 -69t-95.5 -29q-25 0 -51.5 5t-52.5 16l20 70q23 -8 42.5 -11.5t37.5 -3.5q49 0 49 29v7q0 14 -11 23.5t-32 9.5h-51v64h51q40 0 40 30v7q0 29 -46 29q-15 0 -32.5 -3.5t-40.5 -11.5l-22 70q28 11 51.5 15.5t45.5 4.5q67 0 95 -28t28 -68v-7
q0 -24 -13 -41.5t-35 -28.5q23 -10 37 -28.5t14 -43.5v-7z" />
    <glyph glyph-name="uni2084" unicode="&#x2084;" horiz-adv-x="279" 
d="M268 -38h-34v-67h-73v67h-148v64q35 53 65 105t49 104h85q-19 -51 -48 -101.5t-65 -102.5h62v46h73v-46h34v-69z" />
    <glyph glyph-name="uni2085" unicode="&#x2085;" horiz-adv-x="276" 
d="M36 71l10 164h191v-69h-126l-3 -58q15 3 33 3q52 0 81.5 -25t29.5 -74v-14q0 -44 -28.5 -76t-96.5 -32q-25 0 -51 4.5t-56 17.5l21 71q25 -10 45.5 -13.5t38.5 -3.5q47 0 47 33v14q0 14 -10.5 23t-33.5 9q-25 0 -53 -11z" />
    <glyph glyph-name="uni2086" unicode="&#x2086;" horiz-adv-x="303" 
d="M278 -5q0 -46 -31 -75.5t-86 -29.5q-60 0 -93.5 37.5t-33.5 103.5v70q0 71 35 105t98 34q22 0 46 -4t53 -15l-21 -71q-22 10 -41 13t-35 3q-27 0 -43 -15t-16 -50v-14q32 27 75 27q41 0 67 -27t26 -77v-15zM161 45q-27 0 -51 -21q3 -61 51 -61q39 0 39 32v15
q0 16 -10 25.5t-29 9.5z" />
    <glyph glyph-name="uni2087" unicode="&#x2087;" horiz-adv-x="253" 
d="M239 164q-32 -68 -57 -135t-38 -134h-83q13 68 38 134t56 130h-147v76h231v-71z" />
    <glyph glyph-name="uni2088" unicode="&#x2088;" horiz-adv-x="303" 
d="M274 -8q0 -43 -31 -72.5t-94 -29.5q-64 0 -92 28t-28 65q0 43 50 76q-21 14 -32.5 34.5t-11.5 48.5q0 41 29 69.5t86 28.5q58 0 87.5 -26.5t29.5 -65.5q0 -40 -44 -70q51 -28 51 -86zM145 107l25 -8q11 11 15.5 21.5t4.5 20.5q0 29 -39 29t-39 -29q0 -23 33 -34zM106 -8
q0 -14 12 -23t34 -9q45 0 45 31q0 11 -8.5 20.5t-28.5 15.5l-27 8q-27 -22 -27 -43z" />
    <glyph glyph-name="uni2089" unicode="&#x2089;" horiz-adv-x="303" 
d="M269 29q0 -70 -35 -104.5t-98 -34.5q-22 0 -46 4t-53 15l21 71q23 -10 41.5 -13t34.5 -3q27 0 43 15t16 50v14q-31 -27 -75 -27q-40 0 -66.5 27.5t-26.5 76.5v15q0 46 31 75.5t86 29.5q60 0 93.5 -37.5t33.5 -103.5v-70zM103 120q0 -16 10 -25.5t29 -9.5q27 0 51 21
q-3 61 -51 61q-39 0 -39 -32v-15z" />
    <glyph glyph-name="Euro" unicode="&#x20ac;" horiz-adv-x="598" 
d="M567 34q-54 -24 -99.5 -34t-87.5 -10q-109 0 -171.5 60t-77.5 157h-86v87h82v76h-82v87h84q11 104 74 168.5t177 64.5q41 0 85 -9.5t96 -32.5l-37 -106q-46 19 -77 27t-60 8q-61 0 -93.5 -32.5t-40.5 -87.5h215l-18 -87h-200v-76h187l-18 -87h-163q11 -48 42.5 -76
t88.5 -28q30 0 62.5 8t80.5 27z" />
    <glyph glyph-name="uni20B9" unicode="&#x20b9;" horiz-adv-x="552" 
d="M428 422q-7 -79 -62 -125.5t-150 -46.5q51 -41 93 -79.5t81.5 -79.5t81.5 -91h-157q-43 50 -81.5 90.5t-80 79t-94.5 80.5v87h156q44 0 69.5 22.5t31.5 62.5h-257v87h256q-5 39 -30.5 61.5t-69.5 22.5h-156v87h452v-87h-125q34 -33 42 -84h83v-87h-83z" />
    <glyph glyph-name="uni2113" unicode="&#x2113;" horiz-adv-x="391" 
d="M328 15q-27 -12 -55 -18.5t-57 -6.5q-60 0 -94 22.5t-47.5 58.5t-13.5 78v376q0 42 16 80t50.5 61.5t89.5 23.5q37 0 72 -14t57.5 -48.5t22.5 -95.5q0 -47 -17 -93t-59 -98t-117 -117v-70q0 -32 13 -44t38 -12q15 0 36 4t40 11zM176 526v-171q52 58 67 98.5t15 73.5
t-11.5 44t-28.5 11q-19 0 -30.5 -12t-11.5 -44z" />
    <glyph glyph-name="uni2116" unicode="&#x2116;" horiz-adv-x="1085" 
d="M1045 521v-42q0 -73 -42 -118.5t-119 -45.5t-119 45.5t-42 118.5v42q0 70 41.5 117t119.5 47q77 0 119 -47t42 -117zM94 0v680h110q79 -103 150 -217.5t129 -235.5l-9 203v250h115v-680h-110q-64 126 -132.5 253.5t-145.5 240.5l8 -234v-260h-115zM958 521q0 38 -19.5 60
t-54.5 22t-54.5 -22t-19.5 -60v-42q0 -40 20 -61t54 -21q35 0 54.5 21t19.5 61v42zM742 159v82h284v-82h-284z" />
    <glyph glyph-name="trademark" unicode="&#x2122;" horiz-adv-x="734" 
d="M433 680l81 -177l83 177h88v-340h-78v87l6 137l-78 -173h-45l-76 172l6 -136v-87h-78v340h91zM5 603v77h289v-77h-104v-263h-81v263h-104z" />
    <glyph glyph-name="uni2126" unicode="&#x2126;" horiz-adv-x="660" 
d="M177 374q0 -59 24 -100.5t74 -55.5v-218h-219v109h110v45q-55 33 -83.5 90t-28.5 130v42q0 81 31 142.5t91.5 96.5t150.5 35t151.5 -35t92.5 -96.5t31 -142.5v-42q0 -70 -26.5 -125.5t-79.5 -89.5v-50h110v-109h-219v220q47 16 69.5 56.5t22.5 97.5v42q0 73 -36.5 117
t-115.5 44q-77 0 -113.5 -44t-36.5 -117v-42z" />
    <glyph glyph-name="estimated" unicode="&#x212e;" horiz-adv-x="813" 
d="M774 305h-583q-5 0 -5 -4v-176q0 -12 8 -20q42 -44 99 -70t122 -26q70 0 129.5 29t102.5 78h52q-49 -57 -123.5 -91.5t-161.5 -34.5q-75 0 -140 25t-114.5 69.5t-77.5 103.5t-28 126t28 126t77.5 103.5t114.5 69.5t140 25t140 -25t114.5 -69.5t77.5 -103.5t28 -126v-9z
M642 328v178q0 12 -9 21q-42 42 -98 67t-120 25t-121 -25.5t-99 -69.5q-9 -9 -9 -22v-174q0 -5 5 -5h447q4 0 4 5z" />
    <glyph glyph-name="uni2153" unicode="&#x2153;" horiz-adv-x="644" 
d="M17 632l96 48h60v-340h-79v252l-47 -23zM420 680h90l-329 -680h-90zM612 93q0 -40 -28.5 -69t-95.5 -29q-25 0 -51.5 5t-52.5 16l20 70q23 -8 42.5 -11.5t37.5 -3.5q49 0 49 29v7q0 14 -11 23.5t-32 9.5h-51v64h51q40 0 40 30v7q0 29 -46 29q-15 0 -32.5 -3.5
t-40.5 -11.5l-22 70q28 11 51.5 15.5t45.5 4.5q67 0 95 -28t28 -68v-7q0 -24 -13 -41.5t-35 -28.5q23 -10 37 -28.5t14 -43.5v-7z" />
    <glyph glyph-name="uni2154" unicode="&#x2154;" horiz-adv-x="693" 
d="M242 340h-221v68q0 50 22 78t53 41l34 15q20 9 27 18t7 20v3q0 27 -43 27q-18 0 -36.5 -5t-44.5 -14l-19 71q29 13 54 18t49 5q65 0 92 -29t27 -70v-9q0 -34 -18.5 -57t-57.5 -40l-34 -15q-17 -7 -24 -18.5t-9 -29.5h142v-77zM469 680h90l-329 -680h-90zM661 93
q0 -40 -28.5 -69t-95.5 -29q-25 0 -51.5 5t-52.5 16l20 70q23 -8 42.5 -11.5t37.5 -3.5q49 0 49 29v7q0 14 -11 23.5t-32 9.5h-51v64h51q40 0 40 30v7q0 29 -46 29q-15 0 -32.5 -3.5t-40.5 -11.5l-22 70q28 11 51.5 15.5t45.5 4.5q67 0 95 -28t28 -68v-7q0 -24 -13 -41.5
t-35 -28.5q23 -10 37 -28.5t14 -43.5v-7z" />
    <glyph glyph-name="oneeighth" unicode="&#x215b;" horiz-adv-x="659" 
d="M17 632l96 48h60v-340h-79v252l-47 -23zM420 680h90l-329 -680h-90zM630 97q0 -43 -31 -72.5t-94 -29.5q-64 0 -92 28t-28 65q0 43 50 76q-21 14 -32.5 34.5t-11.5 48.5q0 41 29 69.5t86 28.5q58 0 87.5 -26.5t29.5 -65.5q0 -40 -44 -70q51 -28 51 -86zM501 212l25 -8
q11 11 15.5 21.5t4.5 20.5q0 29 -39 29t-39 -29q0 -23 33 -34zM462 97q0 -14 12 -23t34 -9q45 0 45 31q0 11 -8.5 20.5t-28.5 15.5l-27 8q-27 -22 -27 -43z" />
    <glyph glyph-name="threeeighths" unicode="&#x215c;" horiz-adv-x="689" 
d="M243 433q0 -40 -28.5 -69t-95.5 -29q-25 0 -51.5 5t-52.5 16l20 70q23 -8 42.5 -11.5t37.5 -3.5q49 0 49 29v7q0 14 -11 23.5t-32 9.5h-51v64h51q40 0 40 30v7q0 29 -46 29q-15 0 -32.5 -3.5t-40.5 -11.5l-22 70q28 11 51.5 15.5t45.5 4.5q67 0 95 -28t28 -68v-7
q0 -24 -13 -41.5t-35 -28.5q23 -10 37 -28.5t14 -43.5v-7zM450 680h90l-329 -680h-90zM660 97q0 -43 -31 -72.5t-94 -29.5q-64 0 -92 28t-28 65q0 43 50 76q-21 14 -32.5 34.5t-11.5 48.5q0 41 29 69.5t86 28.5q58 0 87.5 -26.5t29.5 -65.5q0 -40 -44 -70q51 -28 51 -86z
M531 212l25 -8q11 11 15.5 21.5t4.5 20.5q0 29 -39 29t-39 -29q0 -23 33 -34zM492 97q0 -14 12 -23t34 -9q45 0 45 31q0 11 -8.5 20.5t-28.5 15.5l-27 8q-27 -22 -27 -43z" />
    <glyph glyph-name="fiveeighths" unicode="&#x215d;" horiz-adv-x="690" 
d="M36 516l10 164h191v-69h-126l-3 -58q15 3 33 3q52 0 81.5 -25t29.5 -74v-14q0 -44 -28.5 -76t-96.5 -32q-25 0 -51 4.5t-56 17.5l21 71q25 -10 45.5 -13.5t38.5 -3.5q47 0 47 33v14q0 14 -10.5 23t-33.5 9q-25 0 -53 -11zM451 680h90l-329 -680h-90zM661 97
q0 -43 -31 -72.5t-94 -29.5q-64 0 -92 28t-28 65q0 43 50 76q-21 14 -32.5 34.5t-11.5 48.5q0 41 29 69.5t86 28.5q58 0 87.5 -26.5t29.5 -65.5q0 -40 -44 -70q51 -28 51 -86zM532 212l25 -8q11 11 15.5 21.5t4.5 20.5q0 29 -39 29t-39 -29q0 -23 33 -34zM493 97
q0 -14 12 -23t34 -9q45 0 45 31q0 11 -8.5 20.5t-28.5 15.5l-27 8q-27 -22 -27 -43z" />
    <glyph glyph-name="seveneighths" unicode="&#x215e;" horiz-adv-x="652" 
d="M239 609q-32 -68 -57 -135t-38 -134h-83q13 68 38 134t56 130h-147v76h231v-71zM413 680h90l-329 -680h-90zM623 97q0 -43 -31 -72.5t-94 -29.5q-64 0 -92 28t-28 65q0 43 50 76q-21 14 -32.5 34.5t-11.5 48.5q0 41 29 69.5t86 28.5q58 0 87.5 -26.5t29.5 -65.5
q0 -40 -44 -70q51 -28 51 -86zM494 212l25 -8q11 11 15.5 21.5t4.5 20.5q0 29 -39 29t-39 -29q0 -23 33 -34zM455 97q0 -14 12 -23t34 -9q45 0 45 31q0 11 -8.5 20.5t-28.5 15.5l-27 8q-27 -22 -27 -43z" />
    <glyph glyph-name="arrowleft" unicode="&#x2190;" horiz-adv-x="651" 
d="M335 188l-48 -62l-256 202v57l256 202l48 -62l-133 -123h410v-88h-414z" />
    <glyph glyph-name="arrowup" unicode="&#x2191;" horiz-adv-x="651" 
d="M494 344l-123 133v-410h-88v414l-126 -137l-62 48l202 256h57l202 -256z" />
    <glyph glyph-name="arrowright" unicode="&#x2192;" horiz-adv-x="651" 
d="M620 330l-256 -202l-48 62l133 123h-410v88h414l-137 126l48 62l256 -202v-57z" />
    <glyph glyph-name="arrowdown" unicode="&#x2193;" horiz-adv-x="651" 
d="M556 325l-202 -256h-57l-202 256l62 48l123 -133v410h88v-414l126 137z" />
    <glyph glyph-name="arrowboth" unicode="&#x2194;" horiz-adv-x="793" 
d="M335 188l-48 -62l-256 202v57l256 202l48 -62l-133 -123h393l-137 126l48 62l256 -202v-57l-256 -202l-48 62l133 123h-393z" />
    <glyph glyph-name="arrowupdn" unicode="&#x2195;" horiz-adv-x="651" 
d="M558 249l-202 -256h-57l-202 256l62 48l123 -133v393l-126 -137l-62 48l202 256h57l202 -256l-62 -48l-123 133v-393l126 137z" />
    <glyph glyph-name="uni2196" unicode="&#x2196;" horiz-adv-x="651" 
d="M559 184l-62 -62l-293 292l8 -186l-78 -10l-38 324l40 41l324 -39l-10 -77l-181 7z" />
    <glyph glyph-name="uni2197" unicode="&#x2197;" horiz-adv-x="651" 
d="M435 229l7 181l-290 -290l-62 63l292 292l-185 -7l-10 77l324 39l40 -41l-38 -324z" />
    <glyph glyph-name="uni2198" unicode="&#x2198;" horiz-adv-x="651" 
d="M547 174l-40 -41l-324 39l10 77l181 -7l-290 290l62 62l292 -292l-7 186l78 10z" />
    <glyph glyph-name="uni2199" unicode="&#x2199;" horiz-adv-x="651" 
d="M460 173l-324 -39l-40 41l38 324l78 -10l-8 -182l291 291l62 -63l-292 -292l185 7z" />
    <glyph glyph-name="partialdiff" unicode="&#x2202;" horiz-adv-x="541" 
d="M486 250q-6 -121 -70 -190.5t-168 -69.5q-63 0 -111 28t-73 77.5t-21 115.5l2 30q4 51 28.5 95.5t67 72t98.5 27.5q31 0 61 -9.5t62 -35.5q-16 79 -67 147.5t-140 117.5l50 94q106 -62 169.5 -136t90.5 -155t23 -166zM161 204q-3 -49 20.5 -80t66.5 -31q51 0 85 43.5
t36 122.5l1 23q-31 26 -59.5 36.5t-53.5 10.5q-42 0 -66.5 -27.5t-27.5 -67.5z" />
    <glyph glyph-name="uni2206" unicode="&#x2206;" horiz-adv-x="563" 
d="M527 94v-94h-491v94l192 586h106zM227 341l-74 -237h253l-75 237l-52 173z" />
    <glyph glyph-name="product" unicode="&#x220f;" horiz-adv-x="700" 
d="M21 565v115h658v-115h-82v-708h-120v708h-254v-708h-120v708h-82z" />
    <glyph glyph-name="summation" unicode="&#x2211;" horiz-adv-x="530" 
d="M528 -28v-115h-499v105l237 307l-237 306v105h479v-115h-320l200 -260v-67l-205 -266h345z" />
    <glyph glyph-name="minus" unicode="&#x2212;" 
d="M87 265v100h414v-100h-414z" />
    <glyph glyph-name="uni2215" unicode="&#x2215;" horiz-adv-x="111" 
d="M175 680h90l-329 -680h-90z" />
    <glyph glyph-name="radical" unicode="&#x221a;" 
d="M17 285v100h188l85 -225l200 520h106l-271 -680h-81l-114 285h-113z" />
    <glyph glyph-name="infinity" unicode="&#x221e;" horiz-adv-x="771" 
d="M541 106q-55 0 -99 26t-73 74q-25 -53 -63.5 -77t-86.5 -24q-50 0 -90.5 25t-64.5 73.5t-24 120.5q0 71 25.5 118t69 71t95.5 24q56 0 100 -26t72 -74q26 53 64 77t86 24q50 0 90.5 -24.5t64.5 -73.5t24 -121q0 -70 -25.5 -117.5t-68.5 -71.5t-96 -24zM449 310
q14 -43 36 -64.5t56 -21.5q38 0 61 25.5t23 72.5t-23.5 72.5t-63.5 25.5q-30 0 -53.5 -17t-46.5 -57zM146 321q0 -47 23.5 -72.5t63.5 -25.5q30 0 54 17t46 57l-11 36q-13 43 -35 64.5t-57 21.5q-38 0 -61 -25.5t-23 -72.5z" />
    <glyph glyph-name="integral" unicode="&#x222b;" horiz-adv-x="355" 
d="M211 -33q-5 -55 -19.5 -98t-48 -67.5t-95.5 -24.5q-27 0 -58 5t-57 15l28 99q20 -7 37.5 -9t28.5 -2q35 0 50 18t19 64l53 593q5 56 19.5 98.5t48 67t95.5 24.5q27 0 58.5 -5t56.5 -15l-28 -99q-19 7 -37 9t-29 2q-34 0 -49 -17.5t-20 -64.5z" />
    <glyph glyph-name="approxequal" unicode="&#x2248;" 
d="M376 320q-33 0 -58 16t-44.5 37t-34.5 37t-29 16q-6 0 -13.5 -5.5t-15 -25.5t-14.5 -65l-90 20q11 70 31 108t47 53t56 15q33 0 58 -16t44 -37t34.5 -37t28.5 -16q7 0 14.5 5.5t15.5 26.5t15 65l90 -20q-11 -70 -31.5 -108.5t-47 -53.5t-56.5 -15zM376 100q-33 0 -58 16
t-44.5 37t-34.5 37t-29 16q-6 0 -13.5 -5.5t-15 -25.5t-14.5 -65l-90 20q11 70 31 108t47 53t56 15q33 0 58 -16t44 -37t34.5 -37t28.5 -16q7 0 14.5 5.5t15.5 26t15 65.5l90 -20q-11 -70 -31.5 -108.5t-47 -53.5t-56.5 -15z" />
    <glyph glyph-name="notequal" unicode="&#x2260;" 
d="M501 165h-236l-62 -131l-66 34l46 97h-96v100h143l47 99h-190v100h237l61 130l66 -34l-45 -96h95v-100h-142l-47 -99h189v-100z" />
    <glyph glyph-name="lessequal" unicode="&#x2264;" 
d="M501 234v-110l-414 168v81l414 165v-106l-260 -98zM87 0v100h414v-100h-414z" />
    <glyph glyph-name="greaterequal" unicode="&#x2265;" 
d="M501 289l-414 -165v106l260 98l-260 100v110l414 -168v-81zM87 0v100h414v-100h-414z" />
    <glyph glyph-name="lozenge" unicode="&#x25ca;" 
d="M257 0l-168 340l165 340h77l168 -340l-165 -340h-77zM200 343l97 -204l93 198l-98 203z" />
    <glyph glyph-name="uniF6C3" unicode="&#xf6c3;" horiz-adv-x="500" 
d="M238 -256l-73 17l26 162h120z" />
    <glyph glyph-name="A.alt" horiz-adv-x="730" 
d="M35 412q0 132 61.5 200t178.5 68h207l228 -680h-125l-42 133h-232l-4 -14q-31 -102 -75 -179t-112 -120t-175 -43v115q54 0 98 19.5t79.5 68.5t65.5 139l153 456h-61q-70 0 -101 -37t-31 -126h-113zM375 341l-30 -98h163l-31 98l-50 172z" />
    <glyph glyph-name="Aacute.alt" horiz-adv-x="730" 
d="M35 412q0 132 61.5 200t178.5 68h207l228 -680h-125l-42 133h-232l-4 -14q-31 -102 -75 -179t-112 -120t-175 -43v115q54 0 98 19.5t79.5 68.5t65.5 139l153 456h-61q-70 0 -101 -37t-31 -126h-113zM375 341l-30 -98h163l-31 98l-50 172zM481 752h-101l96 166l108 -46z
" />
    <glyph glyph-name="Abreve.alt" horiz-adv-x="730" 
d="M35 412q0 132 61.5 200t178.5 68h207l228 -680h-125l-42 133h-232l-4 -14q-31 -102 -75 -179t-112 -120t-175 -43v115q54 0 98 19.5t79.5 68.5t65.5 139l153 456h-61q-70 0 -101 -37t-31 -126h-113zM375 341l-30 -98h163l-31 98l-50 172zM430 839q22 0 34 14.5t13 50.5
h87q-5 -78 -41.5 -112t-92.5 -34q-55 0 -92 34t-42 112h87q2 -36 14 -50.5t33 -14.5z" />
    <glyph glyph-name="Acircumflex.alt" horiz-adv-x="730" 
d="M35 412q0 132 61.5 200t178.5 68h207l228 -680h-125l-42 133h-232l-4 -14q-31 -102 -75 -179t-112 -120t-175 -43v115q54 0 98 19.5t79.5 68.5t65.5 139l153 456h-61q-70 0 -101 -37t-31 -126h-113zM375 341l-30 -98h163l-31 98l-50 172zM488 752l-61 80l-61 -80h-89
l96 161h112l96 -161h-93z" />
    <glyph glyph-name="Adieresis.alt" horiz-adv-x="730" 
d="M35 412q0 132 61.5 200t178.5 68h207l228 -680h-125l-42 133h-232l-4 -14q-31 -102 -75 -179t-112 -120t-175 -43v115q54 0 98 19.5t79.5 68.5t65.5 139l153 456h-61q-70 0 -101 -37t-31 -126h-113zM375 341l-30 -98h163l-31 98l-50 172zM387 782h-109v107h109v-107z
M581 782h-109v107h109v-107z" />
    <glyph glyph-name="Agrave.alt" horiz-adv-x="730" 
d="M35 412q0 132 61.5 200t178.5 68h207l228 -680h-125l-42 133h-232l-4 -14q-31 -102 -75 -179t-112 -120t-175 -43v115q54 0 98 19.5t79.5 68.5t65.5 139l153 456h-61q-70 0 -101 -37t-31 -126h-113zM375 341l-30 -98h163l-31 98l-50 172zM379 752l-103 120l108 46
l96 -166h-101z" />
    <glyph glyph-name="Amacron.alt" horiz-adv-x="730" 
d="M35 412q0 132 61.5 200t178.5 68h207l228 -680h-125l-42 133h-232l-4 -14q-31 -102 -75 -179t-112 -120t-175 -43v115q54 0 98 19.5t79.5 68.5t65.5 139l153 456h-61q-70 0 -101 -37t-31 -126h-113zM375 341l-30 -98h163l-31 98l-50 172zM581 865v-83h-303v83h303z" />
    <glyph glyph-name="Aogonek.alt" horiz-adv-x="730" 
d="M35 412q0 132 61.5 200t178.5 68h207l228 -680q-55 -46 -74 -70t-19 -38q0 -25 30 -25q20 0 47 9l16 -83q-41 -16 -81 -16q-52 0 -82 25t-30 66q0 28 16.5 57t54.5 64l-45 144h-232l-4 -14q-31 -102 -75 -179t-112 -120t-175 -43v115q54 0 98 19.5t79.5 68.5t65.5 139
l153 456h-61q-70 0 -101 -37t-31 -126h-113zM375 341l-30 -98h163l-31 98l-50 172z" />
    <glyph glyph-name="Aring.alt" horiz-adv-x="601" 
d="M178 119q-31 -102 -74.5 -179t-112 -120t-175.5 -43v115q54 0 98 19.5t79.5 68.5t65.5 139l172 513q-50 30 -50 96v11q0 51 32.5 82.5t87.5 31.5t87.5 -31.5t32.5 -82.5v-11q0 -67 -51 -97l211 -631h-125l-42 133h-232zM350 739q0 22 -13 35t-36 13q-22 0 -35.5 -13
t-13.5 -35v-11q0 -22 13.5 -35t35.5 -13q23 0 36 13t13 35v11zM246 341l-30 -98h163l-31 98l-50 172z" />
    <glyph glyph-name="Atilde.alt" horiz-adv-x="730" 
d="M35 412q0 132 61.5 200t178.5 68h207l228 -680h-125l-42 133h-232l-4 -14q-31 -102 -75 -179t-112 -120t-175 -43v115q54 0 98 19.5t79.5 68.5t65.5 139l153 456h-61q-70 0 -101 -37t-31 -126h-113zM375 341l-30 -98h163l-31 98l-50 172zM489 761q-24 0 -40.5 11
t-28.5 25t-22 25t-21 11q-9 0 -13 -12.5t-5 -51.5h-81q0 87 26.5 120.5t66.5 33.5q24 0 40.5 -11t28.5 -25t22 -25t21 -11q9 0 13 12.5t5 51.5h81q0 -88 -26 -121t-67 -33z" />
    <glyph glyph-name="B.alt" horiz-adv-x="774" 
d="M21 412q0 132 61.5 200t178.5 68h229q76 0 120.5 -22t64 -62t19.5 -94v-28q0 -79 -68 -121q48 -19 73 -55t25 -86v-28q0 -55 -20 -96.5t-66 -64.5t-123 -23h-232v575h-17q-70 0 -101 -37t-31 -126h-113zM490 570h-87v-170h87q40 0 60.5 18.5t20.5 50.5v33q0 32 -20.5 50
t-60.5 18zM515 290h-112v-180h112q42 0 64 20t22 54v33q0 34 -22 53.5t-64 19.5z" />
    <glyph glyph-name="D.alt" horiz-adv-x="828" 
d="M21 412q0 132 61.5 200t178.5 68h252q122 0 186 -68t64 -200v-143q0 -133 -64 -201t-186 -68h-230v575h-17q-70 0 -101 -37t-31 -126h-113zM508 565h-105v-450h105q71 0 101.5 35t30.5 119v143q0 83 -30.5 118t-101.5 35z" />
    <glyph glyph-name="Dcaron.alt" horiz-adv-x="828" 
d="M21 412q0 132 61.5 200t178.5 68h252q122 0 186 -68t64 -200v-143q0 -133 -64 -201t-186 -68h-230v575h-17q-70 0 -101 -37t-31 -126h-113zM508 565h-105v-450h105q71 0 101.5 35t30.5 119v143q0 83 -30.5 118t-101.5 35zM660 913l-96 -161h-112l-96 161h93l61 -80l61 80
h89z" />
    <glyph glyph-name="E.alt" horiz-adv-x="725" 
d="M21 412q0 132 61.5 200t178.5 68h406v-115h-264v-163h234v-115h-234v-172h274v-115h-394v575h-17q-70 0 -101 -37t-31 -126h-113z" />
    <glyph glyph-name="Eacute.alt" horiz-adv-x="725" 
d="M21 412q0 132 61.5 200t178.5 68h406v-115h-264v-163h234v-115h-234v-172h274v-115h-394v575h-17q-70 0 -101 -37t-31 -126h-113zM526 752h-101l96 166l108 -46z" />
    <glyph glyph-name="Ebreve.alt" horiz-adv-x="725" 
d="M21 412q0 132 61.5 200t178.5 68h406v-115h-264v-163h234v-115h-234v-172h274v-115h-394v575h-17q-70 0 -101 -37t-31 -126h-113zM475 839q22 0 34 14.5t13 50.5h87q-5 -78 -41.5 -112t-92.5 -34q-55 0 -92 34t-42 112h87q2 -36 14 -50.5t33 -14.5z" />
    <glyph glyph-name="Ecaron.alt" horiz-adv-x="725" 
d="M21 412q0 132 61.5 200t178.5 68h406v-115h-264v-163h234v-115h-234v-172h274v-115h-394v575h-17q-70 0 -101 -37t-31 -126h-113zM626 913l-96 -161h-112l-96 161h93l61 -80l61 80h89z" />
    <glyph glyph-name="Ecircumflex.alt" horiz-adv-x="725" 
d="M21 412q0 132 61.5 200t178.5 68h406v-115h-264v-163h234v-115h-234v-172h274v-115h-394v575h-17q-70 0 -101 -37t-31 -126h-113zM533 752l-61 80l-61 -80h-89l96 161h112l96 -161h-93z" />
    <glyph glyph-name="Edieresis.alt" horiz-adv-x="725" 
d="M21 412q0 132 61.5 200t178.5 68h406v-115h-264v-163h234v-115h-234v-172h274v-115h-394v575h-17q-70 0 -101 -37t-31 -126h-113zM433 782h-109v107h109v-107zM627 782h-109v107h109v-107z" />
    <glyph glyph-name="Edotaccent.alt" horiz-adv-x="725" 
d="M21 412q0 132 61.5 200t178.5 68h406v-115h-264v-163h234v-115h-234v-172h274v-115h-394v575h-17q-70 0 -101 -37t-31 -126h-113zM536 776h-121v119h121v-119z" />
    <glyph glyph-name="Egrave.alt" horiz-adv-x="725" 
d="M21 412q0 132 61.5 200t178.5 68h406v-115h-264v-163h234v-115h-234v-172h274v-115h-394v575h-17q-70 0 -101 -37t-31 -126h-113zM424 752l-103 120l108 46l96 -166h-101z" />
    <glyph glyph-name="Emacron.alt" horiz-adv-x="725" 
d="M21 412q0 132 61.5 200t178.5 68h406v-115h-264v-163h234v-115h-234v-172h274v-115h-394v575h-17q-70 0 -101 -37t-31 -126h-113zM627 865v-83h-303v83h303z" />
    <glyph glyph-name="Eogonek.alt" horiz-adv-x="725" 
d="M21 412q0 132 61.5 200t178.5 68h406v-115h-264v-163h234v-115h-234v-172h274v-115q-55 -46 -74 -70t-19 -38q0 -25 30 -25q20 0 47 9l16 -83q-41 -16 -81 -16q-52 0 -82 25t-30 66q0 30 19 61.5t65 70.5h-285v575h-17q-70 0 -101 -37t-31 -126h-113z" />
    <glyph glyph-name="F.alt" horiz-adv-x="694" 
d="M21 412q0 132 61.5 200t178.5 68h400v-115h-258v-189h228v-115h-228v-261h-120v575h-17q-70 0 -101 -37t-31 -126h-113z" />
    <glyph glyph-name="G.alt" horiz-adv-x="603" 
d="M325 374h219v-343q0 -78 -24 -135t-83.5 -88t-166.5 -31v105q62 0 98 12.5t51.5 44t15.5 88.5q-23 -7 -51 -12t-60 -5q-85 0 -143 36t-88 99t-30 144v123q0 83 30 145.5t89.5 97.5t149.5 35q44 0 91 -9.5t103 -34.5l-37 -105q-49 19 -84.5 27.5t-70.5 8.5
q-78 0 -113 -44.5t-35 -120.5v-123q0 -72 35.5 -118t111.5 -46q23 0 50 4t52 11v129h-110v105z" />
    <glyph glyph-name="Gbreve.alt" horiz-adv-x="603" 
d="M325 374h219v-343q0 -78 -24 -135t-83.5 -88t-166.5 -31v105q62 0 98 12.5t51.5 44t15.5 88.5q-23 -7 -51 -12t-60 -5q-85 0 -143 36t-88 99t-30 144v123q0 83 30 145.5t89.5 97.5t149.5 35q44 0 91 -9.5t103 -34.5l-37 -105q-49 19 -84.5 27.5t-70.5 8.5
q-78 0 -113 -44.5t-35 -120.5v-123q0 -72 35.5 -118t111.5 -46q23 0 50 4t52 11v129h-110v105zM327 839q22 0 34 14.5t13 50.5h87q-5 -78 -41.5 -112t-92.5 -34q-55 0 -92 34t-42 112h87q2 -36 14 -50.5t33 -14.5z" />
    <glyph glyph-name="Gcircumflex.alt" horiz-adv-x="603" 
d="M325 374h219v-343q0 -78 -24 -135t-83.5 -88t-166.5 -31v105q62 0 98 12.5t51.5 44t15.5 88.5q-23 -7 -51 -12t-60 -5q-85 0 -143 36t-88 99t-30 144v123q0 83 30 145.5t89.5 97.5t149.5 35q44 0 91 -9.5t103 -34.5l-37 -105q-49 19 -84.5 27.5t-70.5 8.5
q-78 0 -113 -44.5t-35 -120.5v-123q0 -72 35.5 -118t111.5 -46q23 0 50 4t52 11v129h-110v105zM385 752l-61 80l-61 -80h-89l96 161h112l96 -161h-93z" />
    <glyph glyph-name="Gdotaccent.alt" horiz-adv-x="603" 
d="M325 374h219v-343q0 -78 -24 -135t-83.5 -88t-166.5 -31v105q62 0 98 12.5t51.5 44t15.5 88.5q-23 -7 -51 -12t-60 -5q-85 0 -143 36t-88 99t-30 144v123q0 83 30 145.5t89.5 97.5t149.5 35q44 0 91 -9.5t103 -34.5l-37 -105q-49 19 -84.5 27.5t-70.5 8.5
q-78 0 -113 -44.5t-35 -120.5v-123q0 -72 35.5 -118t111.5 -46q23 0 50 4t52 11v129h-110v105zM387 776h-121v119h121v-119z" />
    <glyph glyph-name="H.alt" horiz-adv-x="871" 
d="M21 412q0 132 61.5 200t178.5 68h142v-278h254v278h120v-680h-120v287h-254v-287h-120v575h-17q-70 0 -101 -37t-31 -126h-113z" />
    <glyph glyph-name="Hcircumflex.alt" horiz-adv-x="871" 
d="M21 412q0 132 61.5 200t178.5 68h142v-278h254v278h120v-680h-120v287h-254v-287h-120v575h-17q-70 0 -101 -37t-31 -126h-113zM588 752l-61 80l-61 -80h-89l96 161h112l96 -161h-93z" />
    <glyph glyph-name="J.alt" horiz-adv-x="495" 
d="M21 412q0 132 61.5 200t178.5 68h158v-436q0 -78 -24 -135t-83.5 -88t-166.5 -31v115q81 0 117.5 30.5t36.5 108.5v331h-33q-70 0 -101 -37t-31 -126h-113z" />
    <glyph glyph-name="Jcircumflex.alt" horiz-adv-x="495" 
d="M21 412q0 132 61.5 200t178.5 68h158v-436q0 -78 -24 -135t-83.5 -88t-166.5 -31v115q81 0 117.5 30.5t36.5 108.5v331h-33q-70 0 -101 -37t-31 -126h-113zM417 752l-61 80l-61 -80h-89l96 161h112l96 -161h-93z" />
    <glyph glyph-name="K.alt" horiz-adv-x="805" 
d="M21 412q0 132 61.5 200t178.5 68h142v-323q76 87 130 165.5t93 157.5h131q-43 -86 -91.5 -162.5t-102.5 -141.5l226 -376h-145l-170 297q-17 -19 -34.5 -38t-36.5 -39v-220h-120v575h-17q-70 0 -101 -37t-31 -126h-113z" />
    <glyph glyph-name="uni0136.alt" horiz-adv-x="805" 
d="M21 412q0 132 61.5 200t178.5 68h142v-323q76 87 130 165.5t93 157.5h131q-43 -86 -91.5 -162.5t-102.5 -141.5l226 -376h-145l-170 297q-17 -19 -34.5 -38t-36.5 -39v-220h-120v575h-17q-70 0 -101 -37t-31 -126h-113zM513 -256l-73 17l26 162h120z" />
    <glyph glyph-name="L.alt" horiz-adv-x="696" 
d="M21 412q0 132 61.5 200t178.5 68h142v-565h272v-115h-392v575h-17q-70 0 -101 -37t-31 -126h-113z" />
    <glyph glyph-name="Lacute.alt" horiz-adv-x="696" 
d="M21 412q0 132 61.5 200t178.5 68h142v-565h272v-115h-392v575h-17q-70 0 -101 -37t-31 -126h-113zM393 752h-101l96 166l108 -46z" />
    <glyph glyph-name="Lcaron.alt" horiz-adv-x="696" 
d="M21 412q0 132 61.5 200t178.5 68h142v-565h272v-115h-392v575h-17q-70 0 -101 -37t-31 -126h-113zM555 486h-77v194h113z" />
    <glyph glyph-name="uni013B.alt" horiz-adv-x="696" 
d="M21 412q0 132 61.5 200t178.5 68h142v-565h272v-115h-392v575h-17q-70 0 -101 -37t-31 -126h-113zM470 -256l-73 17l26 162h120z" />
    <glyph glyph-name="M.alt" horiz-adv-x="1018" 
d="M414 680l190 -465l189 465h131v-680h-115v260l15 238l-169 -418h-107l-165 419l15 -239v-260h-115v575h-17q-70 0 -101 -37t-31 -126h-113q0 132 61.5 200t178.5 68h153z" />
    <glyph glyph-name="N.alt" horiz-adv-x="872" 
d="M21 412q0 132 61.5 200t178.5 68h132q79 -103 150 -217.5t129 -235.5l-9 203v250h115v-680h-110q-64 126 -132.5 253.5t-145.5 240.5l8 -234v-260h-115v575h-17q-70 0 -101 -37t-31 -126h-113z" />
    <glyph glyph-name="Nacute.alt" horiz-adv-x="872" 
d="M21 412q0 132 61.5 200t178.5 68h132q79 -103 150 -217.5t129 -235.5l-9 203v250h115v-680h-110q-64 126 -132.5 253.5t-145.5 240.5l8 -234v-260h-115v575h-17q-70 0 -101 -37t-31 -126h-113zM582 752h-101l96 166l108 -46z" />
    <glyph glyph-name="Ncaron.alt" horiz-adv-x="872" 
d="M21 412q0 132 61.5 200t178.5 68h132q79 -103 150 -217.5t129 -235.5l-9 203v250h115v-680h-110q-64 126 -132.5 253.5t-145.5 240.5l8 -234v-260h-115v575h-17q-70 0 -101 -37t-31 -126h-113zM682 913l-96 -161h-112l-96 161h93l61 -80l61 80h89z" />
    <glyph glyph-name="uni0145.alt" horiz-adv-x="872" 
d="M21 412q0 132 61.5 200t178.5 68h132q79 -103 150 -217.5t129 -235.5l-9 203v250h115v-680h-110q-64 126 -132.5 253.5t-145.5 240.5l8 -234v-260h-115v575h-17q-70 0 -101 -37t-31 -126h-113zM518 -256l-73 17l26 162h120z" />
    <glyph glyph-name="Eng.alt" horiz-adv-x="872" 
d="M663 680h115v-649q0 -78 -24 -135t-83.5 -88t-166.5 -31v115q79 0 116.5 26t41.5 93q-62 124 -129 248.5t-143 234.5l8 -234v-260h-115v575h-17q-70 0 -101 -37t-31 -126h-113q0 132 61.5 200t178.5 68h132q79 -103 149 -218t130 -237l-9 205v250z" />
    <glyph glyph-name="Ntilde.alt" horiz-adv-x="872" 
d="M21 412q0 132 61.5 200t178.5 68h132q79 -103 150 -217.5t129 -235.5l-9 203v250h115v-680h-110q-64 126 -132.5 253.5t-145.5 240.5l8 -234v-260h-115v575h-17q-70 0 -101 -37t-31 -126h-113zM590 761q-24 0 -40.5 11t-28.5 25t-22 25t-21 11q-9 0 -13 -12.5t-5 -51.5
h-81q0 87 26.5 120.5t66.5 33.5q24 0 40.5 -11t28.5 -25t22 -25t21 -11q9 0 13 12.5t5 51.5h81q0 -88 -26 -121t-67 -33z" />
    <glyph glyph-name="P.alt" horiz-adv-x="763" 
d="M21 412q0 132 61.5 200t178.5 68h246q107 0 160.5 -54t53.5 -144v-53q0 -90 -53.5 -144.5t-160.5 -54.5h-104v-230h-120v575h-17q-70 0 -101 -37t-31 -126h-113zM507 565h-104v-220h104q44 0 67.5 22t23.5 62v53q0 39 -23.5 61t-67.5 22z" />
    <glyph glyph-name="R.alt" horiz-adv-x="798" 
d="M403 250v-250h-120v575h-17q-70 0 -101 -37t-31 -126h-113q0 132 61.5 200t178.5 68h249q103 0 158.5 -52.5t55.5 -140.5v-43q0 -58 -25 -102t-72 -67q82 -140 140 -275h-137q-50 125 -119 250h-108zM510 570h-107v-210h107q44 0 67.5 22.5t23.5 61.5v43q0 38 -23.5 60.5
t-67.5 22.5z" />
    <glyph glyph-name="Racute.alt" horiz-adv-x="798" 
d="M403 250v-250h-120v575h-17q-70 0 -101 -37t-31 -126h-113q0 132 61.5 200t178.5 68h249q103 0 158.5 -52.5t55.5 -140.5v-43q0 -58 -25 -102t-72 -67q82 -140 140 -275h-137q-50 125 -119 250h-108zM510 570h-107v-210h107q44 0 67.5 22.5t23.5 61.5v43q0 38 -23.5 60.5
t-67.5 22.5zM545 752h-101l96 166l108 -46z" />
    <glyph glyph-name="Rcaron.alt" horiz-adv-x="798" 
d="M403 250v-250h-120v575h-17q-70 0 -101 -37t-31 -126h-113q0 132 61.5 200t178.5 68h249q103 0 158.5 -52.5t55.5 -140.5v-43q0 -58 -25 -102t-72 -67q82 -140 140 -275h-137q-50 125 -119 250h-108zM510 570h-107v-210h107q44 0 67.5 22.5t23.5 61.5v43q0 38 -23.5 60.5
t-67.5 22.5zM645 913l-96 -161h-112l-96 161h93l61 -80l61 80h89z" />
    <glyph glyph-name="uni0156.alt" horiz-adv-x="798" 
d="M403 250v-250h-120v575h-17q-70 0 -101 -37t-31 -126h-113q0 132 61.5 200t178.5 68h249q103 0 158.5 -52.5t55.5 -140.5v-43q0 -58 -25 -102t-72 -67q82 -140 140 -275h-137q-50 125 -119 250h-108zM510 570h-107v-210h107q44 0 67.5 22.5t23.5 61.5v43q0 38 -23.5 60.5
t-67.5 22.5zM495 -256l-73 17l26 162h120z" />
    <glyph glyph-name="T.alt" horiz-adv-x="641" 
d="M21 412q0 132 61.5 200t178.5 68h367v-115h-190v-565h-120v565h-52q-70 0 -101 -35t-31 -118h-113z" />
    <glyph glyph-name="Tbar.alt" horiz-adv-x="641" 
d="M550 279h-112v-279h-120v279h-112v87h112v199h-52q-70 0 -101 -35t-31 -118h-113q0 132 61.5 200t178.5 68h367v-115h-190v-199h112v-87z" />
    <glyph glyph-name="Tcaron.alt" horiz-adv-x="641" 
d="M21 412q0 132 61.5 200t178.5 68h367v-115h-190v-565h-120v565h-52q-70 0 -101 -35t-31 -118h-113zM529 913l-96 -161h-112l-96 161h93l61 -80l61 80h89z" />
    <glyph glyph-name="uni0162.alt" horiz-adv-x="641" 
d="M21 412q0 132 61.5 200t178.5 68h367v-115h-190v-565h-120v565h-52q-70 0 -101 -35t-31 -118h-113zM366 -256l-73 17l26 162h120z" />
    <glyph glyph-name="uni021A.alt" horiz-adv-x="641" 
d="M21 412q0 132 61.5 200t178.5 68h367v-115h-190v-565h-120v565h-52q-70 0 -101 -35t-31 -118h-113zM366 -256l-73 17l26 162h120z" />
    <glyph glyph-name="U.alt" horiz-adv-x="849" 
d="M21 412q0 132 61.5 200t178.5 68h143v-436q0 -66 29 -103.5t93 -37.5t93 37.5t29 103.5v436h123v-436q0 -115 -61 -184.5t-184 -69.5q-124 0 -184.5 69.5t-60.5 184.5v331h-15q-70 0 -101 -37t-31 -126h-113z" />
    <glyph glyph-name="Uacute.alt" horiz-adv-x="849" 
d="M21 412q0 132 61.5 200t178.5 68h143v-436q0 -66 29 -103.5t93 -37.5t93 37.5t29 103.5v436h123v-436q0 -115 -61 -184.5t-184 -69.5q-124 0 -184.5 69.5t-60.5 184.5v331h-15q-70 0 -101 -37t-31 -126h-113zM577 752h-101l96 166l108 -46z" />
    <glyph glyph-name="Ubreve.alt" horiz-adv-x="849" 
d="M21 412q0 132 61.5 200t178.5 68h143v-436q0 -66 29 -103.5t93 -37.5t93 37.5t29 103.5v436h123v-436q0 -115 -61 -184.5t-184 -69.5q-124 0 -184.5 69.5t-60.5 184.5v331h-15q-70 0 -101 -37t-31 -126h-113zM526 839q22 0 34 14.5t13 50.5h87q-5 -78 -41.5 -112
t-92.5 -34q-55 0 -92 34t-42 112h87q2 -36 14 -50.5t33 -14.5z" />
    <glyph glyph-name="Ucircumflex.alt" horiz-adv-x="849" 
d="M21 412q0 132 61.5 200t178.5 68h143v-436q0 -66 29 -103.5t93 -37.5t93 37.5t29 103.5v436h123v-436q0 -115 -61 -184.5t-184 -69.5q-124 0 -184.5 69.5t-60.5 184.5v331h-15q-70 0 -101 -37t-31 -126h-113zM584 752l-61 80l-61 -80h-89l96 161h112l96 -161h-93z" />
    <glyph glyph-name="Udieresis.alt" horiz-adv-x="849" 
d="M21 412q0 132 61.5 200t178.5 68h143v-436q0 -66 29 -103.5t93 -37.5t93 37.5t29 103.5v436h123v-436q0 -115 -61 -184.5t-184 -69.5q-124 0 -184.5 69.5t-60.5 184.5v331h-15q-70 0 -101 -37t-31 -126h-113zM484 782h-109v107h109v-107zM678 782h-109v107h109v-107z" />
    <glyph glyph-name="Ugrave.alt" horiz-adv-x="849" 
d="M21 412q0 132 61.5 200t178.5 68h143v-436q0 -66 29 -103.5t93 -37.5t93 37.5t29 103.5v436h123v-436q0 -115 -61 -184.5t-184 -69.5q-124 0 -184.5 69.5t-60.5 184.5v331h-15q-70 0 -101 -37t-31 -126h-113zM475 752l-103 120l108 46l96 -166h-101z" />
    <glyph glyph-name="Uhungarumlaut.alt" horiz-adv-x="849" 
d="M21 412q0 132 61.5 200t178.5 68h143v-436q0 -66 29 -103.5t93 -37.5t93 37.5t29 103.5v436h123v-436q0 -115 -61 -184.5t-184 -69.5q-124 0 -184.5 69.5t-60.5 184.5v331h-15q-70 0 -101 -37t-31 -126h-113zM497 752h-91l76 166l88 -46zM647 752h-91l76 166l88 -46z" />
    <glyph glyph-name="Umacron.alt" horiz-adv-x="849" 
d="M21 412q0 132 61.5 200t178.5 68h143v-436q0 -66 29 -103.5t93 -37.5t93 37.5t29 103.5v436h123v-436q0 -115 -61 -184.5t-184 -69.5q-124 0 -184.5 69.5t-60.5 184.5v331h-15q-70 0 -101 -37t-31 -126h-113zM678 865v-83h-303v83h303z" />
    <glyph glyph-name="Uogonek.alt" horiz-adv-x="849" 
d="M21 412q0 132 61.5 200t178.5 68h143v-436q0 -66 29 -103.5t93 -37.5t93 37.5t29 103.5v436h123v-436q0 -61 -16.5 -110.5t-51.5 -81.5q-58 -51 -89.5 -81t-44 -47.5t-12.5 -31.5q0 -25 30 -25q20 0 47 9l16 -83q-41 -16 -81 -16q-52 0 -82 25t-30 68q0 29 16 57.5
t50 62.5q-122 1 -182 70t-60 184v331h-15q-70 0 -101 -37t-31 -126h-113z" />
    <glyph glyph-name="Uring.alt" horiz-adv-x="849" 
d="M21 412q0 132 61.5 200t178.5 68h143v-436q0 -66 29 -103.5t93 -37.5t93 37.5t29 103.5v436h123v-436q0 -115 -61 -184.5t-184 -69.5q-124 0 -184.5 69.5t-60.5 184.5v331h-15q-70 0 -101 -37t-31 -126h-113zM646 862v-11q0 -51 -32.5 -83t-87.5 -32t-87.5 32t-32.5 83
v11q0 51 32.5 82.5t87.5 31.5t87.5 -31.5t32.5 -82.5zM575 862q0 22 -13 35t-36 13q-22 0 -35.5 -13t-13.5 -35v-11q0 -22 13.5 -35t35.5 -13q23 0 36 13t13 35v11z" />
    <glyph glyph-name="Utilde.alt" horiz-adv-x="849" 
d="M21 412q0 132 61.5 200t178.5 68h143v-436q0 -66 29 -103.5t93 -37.5t93 37.5t29 103.5v436h123v-436q0 -115 -61 -184.5t-184 -69.5q-124 0 -184.5 69.5t-60.5 184.5v331h-15q-70 0 -101 -37t-31 -126h-113zM585 761q-24 0 -40.5 11t-28.5 25t-22 25t-21 11
q-9 0 -13 -12.5t-5 -51.5h-81q0 87 26.5 120.5t66.5 33.5q24 0 40.5 -11t28.5 -25t22 -25t21 -11q9 0 13 12.5t5 51.5h81q0 -88 -26 -121t-67 -33z" />
    <glyph glyph-name="V.alt" horiz-adv-x="819" 
d="M21 412q0 132 61.5 200t178.5 68h110l103 -342l47 -176l50 177l67 222q31 102 74.5 179t112.5 120t175 43v-115q-54 0 -98.5 -19t-80 -68.5t-64.5 -139.5l-178 -561h-123l-183 575h-7q-70 0 -101 -37t-31 -126h-113z" />
    <glyph glyph-name="W.alt" horiz-adv-x="1099" 
d="M433 411l38 -252l136 521h108l135 -516l42 248l23 118q25 128 71 210.5t121 122.5t185 40v-115q-45 0 -84.5 -11t-73.5 -41.5t-61.5 -87t-47.5 -147.5l-112 -501h-123l-131 506l-132 -506h-123l-130 575h-8q-70 0 -101 -37t-31 -126h-113q0 132 61.5 200t178.5 68h120z
" />
    <glyph glyph-name="Wacute.alt" horiz-adv-x="1099" 
d="M433 411l38 -252l136 521h108l135 -516l42 248l23 118q25 128 71 210.5t121 122.5t185 40v-115q-45 0 -84.5 -11t-73.5 -41.5t-61.5 -87t-47.5 -147.5l-112 -501h-123l-131 506l-132 -506h-123l-130 575h-8q-70 0 -101 -37t-31 -126h-113q0 132 61.5 200t178.5 68h120z
M710 752h-101l96 166l108 -46z" />
    <glyph glyph-name="Wcircumflex.alt" horiz-adv-x="1099" 
d="M433 411l38 -252l136 521h108l135 -516l42 248l23 118q25 128 71 210.5t121 122.5t185 40v-115q-45 0 -84.5 -11t-73.5 -41.5t-61.5 -87t-47.5 -147.5l-112 -501h-123l-131 506l-132 -506h-123l-130 575h-8q-70 0 -101 -37t-31 -126h-113q0 132 61.5 200t178.5 68h120z
M717 752l-61 80l-61 -80h-89l96 161h112l96 -161h-93z" />
    <glyph glyph-name="Wdieresis.alt" horiz-adv-x="1099" 
d="M433 411l38 -252l136 521h108l135 -516l42 248l23 118q25 128 71 210.5t121 122.5t185 40v-115q-45 0 -84.5 -11t-73.5 -41.5t-61.5 -87t-47.5 -147.5l-112 -501h-123l-131 506l-132 -506h-123l-130 575h-8q-70 0 -101 -37t-31 -126h-113q0 132 61.5 200t178.5 68h120z
M616 782h-109v107h109v-107zM810 782h-109v107h109v-107z" />
    <glyph glyph-name="Wgrave.alt" horiz-adv-x="1099" 
d="M433 411l38 -252l136 521h108l135 -516l42 248l23 118q25 128 71 210.5t121 122.5t185 40v-115q-45 0 -84.5 -11t-73.5 -41.5t-61.5 -87t-47.5 -147.5l-112 -501h-123l-131 506l-132 -506h-123l-130 575h-8q-70 0 -101 -37t-31 -126h-113q0 132 61.5 200t178.5 68h120z
M608 752l-103 120l108 46l96 -166h-101z" />
    <glyph glyph-name="X.alt" horiz-adv-x="734" 
d="M21 412q0 132 59 200t171 68h76l131 -228l123 228h126l-187 -333l199 -347h-136l-142 249l-135 -249h-126l199 353l-128 222q-62 -1 -89.5 -38.5t-27.5 -124.5h-113z" />
    <glyph glyph-name="Y.alt" horiz-adv-x="763" 
d="M21 412q0 132 59 200t171 68h99l147 -290l139 290h124l-208 -407v-273h-120v271l-156 304h-20q-65 0 -93.5 -37t-28.5 -126h-113z" />
    <glyph glyph-name="Yacute.alt" horiz-adv-x="763" 
d="M21 412q0 132 59 200t171 68h99l147 -290l139 290h124l-208 -407v-273h-120v271l-156 304h-20q-65 0 -93.5 -37t-28.5 -126h-113zM546 752h-101l96 166l108 -46z" />
    <glyph glyph-name="Ycircumflex.alt" horiz-adv-x="763" 
d="M21 412q0 132 59 200t171 68h99l147 -290l139 290h124l-208 -407v-273h-120v271l-156 304h-20q-65 0 -93.5 -37t-28.5 -126h-113zM553 752l-61 80l-61 -80h-89l96 161h112l96 -161h-93z" />
    <glyph glyph-name="Ydieresis.alt" horiz-adv-x="763" 
d="M21 412q0 132 59 200t171 68h99l147 -290l139 290h124l-208 -407v-273h-120v271l-156 304h-20q-65 0 -93.5 -37t-28.5 -126h-113zM453 782h-109v107h109v-107zM647 782h-109v107h109v-107z" />
    <glyph glyph-name="Ygrave.alt" horiz-adv-x="763" 
d="M21 412q0 132 59 200t171 68h99l147 -290l139 290h124l-208 -407v-273h-120v271l-156 304h-20q-65 0 -93.5 -37t-28.5 -126h-113zM444 752l-103 120l108 46l96 -166h-101z" />
    <glyph glyph-name="i.dot" horiz-adv-x="273" 
d="M197 603h-121v119h121v-119zM194 0h-115v507h115v-507z" />
    <glyph glyph-name="zero.denominator" horiz-adv-x="326" 
d="M293 206v-71q0 -65 -33 -102.5t-97 -37.5t-97 37.5t-33 102.5v71q0 65 33 102t97 37q65 0 97.5 -37t32.5 -102zM213 206q0 64 -50 64q-49 0 -49 -64v-71q0 -64 49 -64q50 0 50 64v71z" />
    <glyph glyph-name="one.denominator" horiz-adv-x="220" 
d="M17 292l96 48h60v-340h-79v252l-47 -23z" />
    <glyph glyph-name="two.denominator" horiz-adv-x="269" 
d="M242 0h-221v68q0 50 22 78t53 41l34 15q20 9 27 18t7 20v3q0 27 -43 27q-18 0 -36.5 -5t-44.5 -14l-19 71q29 13 54 18t49 5q65 0 92 -29t27 -70v-9q0 -34 -18.5 -57t-57.5 -40l-34 -15q-17 -7 -24 -18.5t-9 -29.5h142v-77z" />
    <glyph glyph-name="three.denominator" horiz-adv-x="275" 
d="M243 93q0 -40 -28.5 -69t-95.5 -29q-25 0 -51.5 5t-52.5 16l20 70q23 -8 42.5 -11.5t37.5 -3.5q49 0 49 29v7q0 14 -11 23.5t-32 9.5h-51v64h51q40 0 40 30v7q0 29 -46 29q-15 0 -32.5 -3.5t-40.5 -11.5l-22 70q28 11 51.5 15.5t45.5 4.5q67 0 95 -28t28 -68v-7
q0 -24 -13 -41.5t-35 -28.5q23 -10 37 -28.5t14 -43.5v-7z" />
    <glyph glyph-name="four.denominator" horiz-adv-x="279" 
d="M268 67h-34v-67h-73v67h-148v64q35 53 65 105t49 104h85q-19 -51 -48 -101.5t-65 -102.5h62v46h73v-46h34v-69z" />
    <glyph glyph-name="five.denominator" horiz-adv-x="276" 
d="M36 176l10 164h191v-69h-126l-3 -58q15 3 33 3q52 0 81.5 -25t29.5 -74v-14q0 -44 -28.5 -76t-96.5 -32q-25 0 -51 4.5t-56 17.5l21 71q25 -10 45.5 -13.5t38.5 -3.5q47 0 47 33v14q0 14 -10.5 23t-33.5 9q-25 0 -53 -11z" />
    <glyph glyph-name="six.denominator" horiz-adv-x="303" 
d="M278 100q0 -46 -31 -75.5t-86 -29.5q-60 0 -93.5 37.5t-33.5 103.5v70q0 71 35 105t98 34q22 0 46 -4t53 -15l-21 -71q-22 10 -41 13t-35 3q-27 0 -43 -15t-16 -50v-14q32 27 75 27q41 0 67 -27t26 -77v-15zM161 150q-27 0 -51 -21q3 -61 51 -61q39 0 39 32v15
q0 16 -10 25.5t-29 9.5z" />
    <glyph glyph-name="seven.denominator" horiz-adv-x="253" 
d="M239 269q-32 -68 -57 -135t-38 -134h-83q13 68 38 134t56 130h-147v76h231v-71z" />
    <glyph glyph-name="eight.denominator" horiz-adv-x="303" 
d="M274 97q0 -43 -31 -72.5t-94 -29.5q-64 0 -92 28t-28 65q0 43 50 76q-21 14 -32.5 34.5t-11.5 48.5q0 41 29 69.5t86 28.5q58 0 87.5 -26.5t29.5 -65.5q0 -40 -44 -70q51 -28 51 -86zM145 212l25 -8q11 11 15.5 21.5t4.5 20.5q0 29 -39 29t-39 -29q0 -23 33 -34zM106 97
q0 -14 12 -23t34 -9q45 0 45 31q0 11 -8.5 20.5t-28.5 15.5l-27 8q-27 -22 -27 -43z" />
    <glyph glyph-name="nine.denominator" horiz-adv-x="303" 
d="M269 134q0 -70 -35 -104.5t-98 -34.5q-22 0 -46 4t-53 15l21 71q23 -10 41.5 -13t34.5 -3q27 0 43 15t16 50v14q-31 -27 -75 -27q-40 0 -66.5 27.5t-26.5 76.5v15q0 46 31 75.5t86 29.5q60 0 93.5 -37.5t33.5 -103.5v-70zM103 225q0 -16 10 -25.5t29 -9.5q27 0 51 21
q-3 61 -51 61q-39 0 -39 -32v-15z" />
    <glyph glyph-name="zero.numerator" horiz-adv-x="326" 
d="M293 546v-71q0 -65 -33 -102.5t-97 -37.5t-97 37.5t-33 102.5v71q0 65 33 102t97 37q65 0 97.5 -37t32.5 -102zM213 546q0 64 -50 64q-49 0 -49 -64v-71q0 -64 49 -64q50 0 50 64v71z" />
    <glyph glyph-name="one.numerator" horiz-adv-x="220" 
d="M17 632l96 48h60v-340h-79v252l-47 -23z" />
    <glyph glyph-name="two.numerator" horiz-adv-x="269" 
d="M242 340h-221v68q0 50 22 78t53 41l34 15q20 9 27 18t7 20v3q0 27 -43 27q-18 0 -36.5 -5t-44.5 -14l-19 71q29 13 54 18t49 5q65 0 92 -29t27 -70v-9q0 -34 -18.5 -57t-57.5 -40l-34 -15q-17 -7 -24 -18.5t-9 -29.5h142v-77z" />
    <glyph glyph-name="three.numerator" horiz-adv-x="275" 
d="M243 433q0 -40 -28.5 -69t-95.5 -29q-25 0 -51.5 5t-52.5 16l20 70q23 -8 42.5 -11.5t37.5 -3.5q49 0 49 29v7q0 14 -11 23.5t-32 9.5h-51v64h51q40 0 40 30v7q0 29 -46 29q-15 0 -32.5 -3.5t-40.5 -11.5l-22 70q28 11 51.5 15.5t45.5 4.5q67 0 95 -28t28 -68v-7
q0 -24 -13 -41.5t-35 -28.5q23 -10 37 -28.5t14 -43.5v-7z" />
    <glyph glyph-name="four.numerator" horiz-adv-x="279" 
d="M268 407h-34v-67h-73v67h-148v64q35 53 65 105t49 104h85q-19 -51 -48 -101.5t-65 -102.5h62v46h73v-46h34v-69z" />
    <glyph glyph-name="five.numerator" horiz-adv-x="276" 
d="M36 516l10 164h191v-69h-126l-3 -58q15 3 33 3q52 0 81.5 -25t29.5 -74v-14q0 -44 -28.5 -76t-96.5 -32q-25 0 -51 4.5t-56 17.5l21 71q25 -10 45.5 -13.5t38.5 -3.5q47 0 47 33v14q0 14 -10.5 23t-33.5 9q-25 0 -53 -11z" />
    <glyph glyph-name="six.numerator" horiz-adv-x="303" 
d="M278 440q0 -46 -31 -75.5t-86 -29.5q-60 0 -93.5 37.5t-33.5 103.5v70q0 71 35 105t98 34q22 0 46 -4t53 -15l-21 -71q-22 10 -41 13t-35 3q-27 0 -43 -15t-16 -50v-14q32 27 75 27q41 0 67 -27t26 -77v-15zM161 490q-27 0 -51 -21q3 -61 51 -61q39 0 39 32v15
q0 16 -10 25.5t-29 9.5z" />
    <glyph glyph-name="seven.numerator" horiz-adv-x="253" 
d="M239 609q-32 -68 -57 -135t-38 -134h-83q13 68 38 134t56 130h-147v76h231v-71z" />
    <glyph glyph-name="eight.numerator" horiz-adv-x="303" 
d="M274 437q0 -43 -31 -72.5t-94 -29.5q-64 0 -92 28t-28 65q0 43 50 76q-21 14 -32.5 34.5t-11.5 48.5q0 41 29 69.5t86 28.5q58 0 87.5 -26.5t29.5 -65.5q0 -40 -44 -70q51 -28 51 -86zM145 552l25 -8q11 11 15.5 21.5t4.5 20.5q0 29 -39 29t-39 -29q0 -23 33 -34z
M106 437q0 -14 12 -23t34 -9q45 0 45 31q0 11 -8.5 20.5t-28.5 15.5l-27 8q-27 -22 -27 -43z" />
    <glyph glyph-name="nine.numerator" horiz-adv-x="303" 
d="M269 474q0 -70 -35 -104.5t-98 -34.5q-22 0 -46 4t-53 15l21 71q23 -10 41.5 -13t34.5 -3q27 0 43 15t16 50v14q-31 -27 -75 -27q-40 0 -66.5 27.5t-26.5 76.5v15q0 46 31 75.5t86 29.5q60 0 93.5 -37.5t33.5 -103.5v-70zM103 565q0 -16 10 -25.5t29 -9.5q27 0 51 21
q-3 61 -51 61q-39 0 -39 -32v-15z" />
    <glyph glyph-name="zero.posf" horiz-adv-x="564" 
d="M514 279v-50q0 -110 -59 -174.5t-173 -64.5q-115 0 -173.5 64.5t-58.5 174.5v50q0 111 58.5 174.5t173.5 63.5q114 0 173 -63.5t59 -174.5zM398 279q0 134 -116 134q-60 0 -88 -34t-28 -100v-50q0 -66 28 -100.5t88 -34.5q116 0 116 135v50z" />
    <glyph glyph-name="one.posf" horiz-adv-x="371" 
d="M19 410l173 97h100v-507h-118v375l-102 -56z" />
    <glyph glyph-name="two.posf" horiz-adv-x="480" 
d="M421 0h-368v95q0 70 30.5 112t95.5 65l68 24q58 20 58 57v8q0 23 -18 36t-59 13q-31 0 -61.5 -7t-76.5 -27l-37 97q53 23 95.5 33.5t83.5 10.5q70 0 112 -21t60.5 -55t18.5 -75v-8q0 -64 -35.5 -99t-88.5 -54l-68 -24q-34 -12 -47 -32t-13 -44h250v-105z" />
    <glyph glyph-name="three.posf" horiz-adv-x="470" 
d="M428 12q0 -53 -22 -97.5t-70.5 -71t-129.5 -26.5q-46 0 -95.5 11t-108.5 37l37 103q53 -19 89.5 -29.5t73.5 -10.5q53 0 80.5 21.5t27.5 67.5v14q0 38 -23.5 61.5t-72.5 23.5h-106v108h106q47 0 69 22.5t22 58.5v14q0 46 -25.5 66.5t-74.5 20.5q-35 0 -70.5 -9.5
t-85.5 -28.5l-37 103q56 26 104 36t93 10q77 0 124 -26t68.5 -70t21.5 -97v-14q0 -47 -23.5 -82.5t-61.5 -56.5q41 -22 65.5 -58.5t24.5 -86.5v-14z" />
    <glyph glyph-name="four.posf" horiz-adv-x="528" 
d="M509 0h-71v-173h-116v173h-292v97q77 103 138 204.5t99 205.5h131q-37 -102 -95 -200.5t-133 -199.5h152v84h116v-84h71v-107z" />
    <glyph glyph-name="five.posf" horiz-adv-x="487" 
d="M56 178l20 329h348v-113h-242l-9 -150q35 9 75 9q99 0 155 -51.5t56 -151.5v-27q0 -56 -23 -103t-73.5 -75t-133.5 -28q-46 0 -95.5 11t-108.5 37l37 103q53 -21 89.5 -30.5t73.5 -9.5q56 0 84.5 23t28.5 72v27q0 44 -25.5 70t-81.5 26q-25 0 -52 -6.5t-58 -18.5z" />
    <glyph glyph-name="six.posf" horiz-adv-x="560" 
d="M514 204q0 -61 -27 -109.5t-76.5 -76.5t-119.5 -28q-111 0 -173 75t-62 206v141q0 140 66 209t186 69q42 0 87.5 -10t100.5 -36l-43 -103q-45 21 -79 29.5t-63 8.5q-63 0 -101.5 -37.5t-38.5 -129.5v-36q35 31 72.5 46t74.5 15q60 0 104 -27t68 -75t24 -111v-20zM171 271
q0 -86 32 -128t90 -42q50 0 77 28.5t27 74.5v20q0 47 -25 76t-72 29q-71 0 -129 -54v-4z" />
    <glyph glyph-name="seven.posf" horiz-adv-x="476" 
d="M443 404q-68 -144 -115.5 -288.5t-75.5 -288.5h-126q28 142 74 284t113 283h-292v113h422v-103z" />
    <glyph glyph-name="eight.posf" horiz-adv-x="528" 
d="M493 185q0 -55 -25.5 -99t-77.5 -70t-132 -26q-79 0 -128 24.5t-72 64.5t-23 89t23 90.5t76 76.5q-42 28 -64.5 69t-22.5 96q0 53 25 96t73 68.5t115 25.5q72 0 121 -24t73.5 -64.5t24.5 -90.5q0 -44 -20.5 -82.5t-68.5 -71.5q103 -58 103 -172zM251 408l49 -15
q34 29 47.5 53.5t13.5 50.5q0 40 -25.5 63.5t-72.5 23.5t-72.5 -23t-25.5 -63q0 -63 86 -90zM153 185q0 -40 29 -64.5t82 -24.5q52 0 81.5 24t29.5 64q0 30 -21.5 54.5t-73.5 40.5l-54 17q-37 -30 -55 -56t-18 -55z" />
    <glyph glyph-name="nine.posf" horiz-adv-x="551" 
d="M500 95q0 -140 -66 -209t-186 -69q-42 0 -87 10t-101 36l43 103q45 -21 79.5 -29.5t62.5 -8.5q63 0 101.5 38t38.5 129v36q-34 -31 -71.5 -46t-75.5 -15q-59 0 -103.5 27t-68.5 75t-24 111v20q0 56 27 105t77 79t119 30q111 0 173 -75t62 -206v-141zM159 283
q0 -46 25.5 -75.5t71.5 -29.5q71 0 129 54v4q0 86 -31.5 128t-90.5 42q-49 0 -76.5 -32t-27.5 -71v-20z" />
    <glyph glyph-name="zero.tlf" horiz-adv-x="550" 
d="M515 412v-143q0 -130 -61 -204.5t-179 -74.5t-179 74.5t-61 204.5v143q0 130 61 204t179 74t179 -74t61 -204zM394 412q0 167 -119 167q-61 0 -90 -42t-29 -125v-143q0 -83 29 -125.5t90 -42.5q119 0 119 168v143z" />
    <glyph glyph-name="one.tlf" horiz-adv-x="550" 
d="M60 568l198 112h100v-567h122v-113h-387v113h147v428l-125 -70z" />
    <glyph glyph-name="two.tlf" horiz-adv-x="550" 
d="M478 0h-412v95q0 72 19 120.5t51 80t70 50.5l68 34q39 20 63.5 42.5t24.5 58.5v18q0 37 -25.5 58.5t-81.5 21.5q-34 0 -68.5 -10t-83.5 -28l-37 103q56 25 102.5 35.5t90.5 10.5q81 0 129.5 -26t70 -69.5t21.5 -95.5v-18q0 -54 -21.5 -92t-56.5 -64t-76 -46l-68 -34
q-37 -18 -54.5 -50t-19.5 -82h294v-113z" />
    <glyph glyph-name="three.tlf" horiz-adv-x="550" 
d="M472 185q0 -53 -22 -97.5t-70.5 -71t-129.5 -26.5q-46 0 -95.5 11t-108.5 37l37 103q53 -19 89.5 -29.5t73.5 -10.5q53 0 80.5 21.5t27.5 67.5v14q0 38 -23.5 61.5t-72.5 23.5h-106v108h106q47 0 69 22.5t22 58.5v14q0 46 -25.5 66.5t-74.5 20.5q-35 0 -70.5 -9.5
t-85.5 -28.5l-37 103q56 26 104 36t93 10q77 0 124 -26t68.5 -70t21.5 -97v-14q0 -47 -23.5 -82.5t-61.5 -56.5q41 -22 65.5 -58.5t24.5 -86.5v-14z" />
    <glyph glyph-name="four.tlf" horiz-adv-x="550" 
d="M528 154h-71v-154h-116v154h-292v97q45 70 89.5 142.5t83.5 145t64 141.5h131q-37 -102 -100 -209.5t-130 -209.5h154v103h116v-103h71v-107z" />
    <glyph glyph-name="five.tlf" horiz-adv-x="550" 
d="M82 351l20 329h348v-113h-242l-9 -150q35 9 75 9q99 0 155 -51.5t56 -151.5v-27q0 -56 -23 -103t-73.5 -75t-133.5 -28q-46 0 -95.5 11t-108.5 37l37 103q53 -21 89.5 -30.5t73.5 -9.5q56 0 84.5 23t28.5 72v27q0 44 -25.5 70t-81.5 26q-25 0 -52 -6.5t-58 -18.5z" />
    <glyph glyph-name="six.tlf" horiz-adv-x="550" 
d="M512 204q0 -61 -27 -109.5t-76.5 -76.5t-119.5 -28q-111 0 -173 75t-62 206v141q0 140 66 209t186 69q42 0 87.5 -10t100.5 -36l-43 -103q-45 21 -79 29.5t-63 8.5q-63 0 -101.5 -37.5t-38.5 -129.5v-36q35 31 72.5 46t74.5 15q60 0 104 -27t68 -75t24 -111v-20zM169 271
q0 -86 32 -128t90 -42q50 0 77 28.5t27 74.5v20q0 47 -25 76t-72 29q-71 0 -129 -54v-4z" />
    <glyph glyph-name="seven.tlf" horiz-adv-x="550" 
d="M485 577q-68 -144 -115.5 -288.5t-75.5 -288.5h-126q28 142 74 284t113 283h-292v113h422v-103z" />
    <glyph glyph-name="eight.tlf" horiz-adv-x="550" 
d="M504 185q0 -55 -25.5 -99t-77.5 -70t-132 -26q-79 0 -128 24.5t-72 64.5t-23 89t23 90.5t76 76.5q-42 28 -64.5 69t-22.5 96q0 53 25 96t73 68.5t115 25.5q72 0 121 -24t73.5 -64.5t24.5 -90.5q0 -44 -20.5 -82.5t-68.5 -71.5q103 -58 103 -172zM262 408l49 -15
q34 29 47.5 53.5t13.5 50.5q0 40 -25.5 63.5t-72.5 23.5t-72.5 -23t-25.5 -63q0 -63 86 -90zM164 185q0 -40 29 -64.5t82 -24.5q52 0 81.5 24t29.5 64q0 30 -21.5 54.5t-73.5 40.5l-54 17q-37 -30 -55 -56t-18 -55z" />
    <glyph glyph-name="nine.tlf" horiz-adv-x="550" 
d="M496 268q0 -140 -66 -209t-186 -69q-42 0 -87 10t-101 36l43 103q45 -21 79.5 -29.5t62.5 -8.5q63 0 101.5 38t38.5 129v36q-34 -31 -71.5 -46t-75.5 -15q-59 0 -103.5 27t-68.5 75t-24 111v20q0 56 27 105t77 79t119 30q111 0 173 -75t62 -206v-141zM155 456
q0 -46 25.5 -75.5t71.5 -29.5q71 0 129 54v4q0 86 -31.5 128t-90.5 42q-49 0 -76.5 -32t-27.5 -71v-20z" />
    <glyph glyph-name="uni2155" horiz-adv-x="638" 
d="M17 632l96 48h60v-340h-79v252l-47 -23zM420 680h90l-329 -680h-90zM398 176l10 164h191v-69h-126l-3 -58q15 3 33 3q52 0 81.5 -25t29.5 -74v-14q0 -44 -28.5 -76t-96.5 -32q-25 0 -51 4.5t-56 17.5l21 71q25 -10 45.5 -13.5t38.5 -3.5q47 0 47 33v14q0 14 -10.5 23
t-33.5 9q-25 0 -53 -11z" />
    <glyph glyph-name="uni2156" horiz-adv-x="687" 
d="M242 340h-221v68q0 50 22 78t53 41l34 15q20 9 27 18t7 20v3q0 27 -43 27q-18 0 -36.5 -5t-44.5 -14l-19 71q29 13 54 18t49 5q65 0 92 -29t27 -70v-9q0 -34 -18.5 -57t-57.5 -40l-34 -15q-17 -7 -24 -18.5t-9 -29.5h142v-77zM469 680h90l-329 -680h-90zM447 176l10 164
h191v-69h-126l-3 -58q15 3 33 3q52 0 81.5 -25t29.5 -74v-14q0 -44 -28.5 -76t-96.5 -32q-25 0 -51 4.5t-56 17.5l21 71q25 -10 45.5 -13.5t38.5 -3.5q47 0 47 33v14q0 14 -10.5 23t-33.5 9q-25 0 -53 -11z" />
    <glyph glyph-name="uni2157" horiz-adv-x="668" 
d="M243 433q0 -40 -28.5 -69t-95.5 -29q-25 0 -51.5 5t-52.5 16l20 70q23 -8 42.5 -11.5t37.5 -3.5q49 0 49 29v7q0 14 -11 23.5t-32 9.5h-51v64h51q40 0 40 30v7q0 29 -46 29q-15 0 -32.5 -3.5t-40.5 -11.5l-22 70q28 11 51.5 15.5t45.5 4.5q67 0 95 -28t28 -68v-7
q0 -24 -13 -41.5t-35 -28.5q23 -10 37 -28.5t14 -43.5v-7zM450 680h90l-329 -680h-90zM428 176l10 164h191v-69h-126l-3 -58q15 3 33 3q52 0 81.5 -25t29.5 -74v-14q0 -44 -28.5 -76t-96.5 -32q-25 0 -51 4.5t-56 17.5l21 71q25 -10 45.5 -13.5t38.5 -3.5q47 0 47 33v14
q0 14 -10.5 23t-33.5 9q-25 0 -53 -11z" />
    <glyph glyph-name="uni2158" horiz-adv-x="692" 
d="M268 407h-34v-67h-73v67h-148v64q35 53 65 105t49 104h85q-19 -51 -48 -101.5t-65 -102.5h62v46h73v-46h34v-69zM474 680h90l-329 -680h-90zM452 176l10 164h191v-69h-126l-3 -58q15 3 33 3q52 0 81.5 -25t29.5 -74v-14q0 -44 -28.5 -76t-96.5 -32q-25 0 -51 4.5
t-56 17.5l21 71q25 -10 45.5 -13.5t38.5 -3.5q47 0 47 33v14q0 14 -10.5 23t-33.5 9q-25 0 -53 -11z" />
    <glyph glyph-name="uni2159" horiz-adv-x="659" 
d="M17 632l96 48h60v-340h-79v252l-47 -23zM420 680h90l-329 -680h-90zM634 100q0 -46 -31 -75.5t-86 -29.5q-60 0 -93.5 37.5t-33.5 103.5v70q0 71 35 105t98 34q22 0 46 -4t53 -15l-21 -71q-22 10 -41 13t-35 3q-27 0 -43 -15t-16 -50v-14q32 27 75 27q41 0 67 -27t26 -77
v-15zM517 150q-27 0 -51 -21q3 -61 51 -61q39 0 39 32v15q0 16 -10 25.5t-29 9.5z" />
    <glyph glyph-name="uni215A" horiz-adv-x="690" 
d="M36 516l10 164h191v-69h-126l-3 -58q15 3 33 3q52 0 81.5 -25t29.5 -74v-14q0 -44 -28.5 -76t-96.5 -32q-25 0 -51 4.5t-56 17.5l21 71q25 -10 45.5 -13.5t38.5 -3.5q47 0 47 33v14q0 14 -10.5 23t-33.5 9q-25 0 -53 -11zM451 680h90l-329 -680h-90zM665 100
q0 -46 -31 -75.5t-86 -29.5q-60 0 -93.5 37.5t-33.5 103.5v70q0 71 35 105t98 34q22 0 46 -4t53 -15l-21 -71q-22 10 -41 13t-35 3q-27 0 -43 -15t-16 -50v-14q32 27 75 27q41 0 67 -27t26 -77v-15zM548 150q-27 0 -51 -21q3 -61 51 -61q39 0 39 32v15q0 16 -10 25.5
t-29 9.5z" />
    <glyph glyph-name="uni2150" horiz-adv-x="649" 
d="M17 632l96 48h60v-340h-79v252l-47 -23zM420 680h90l-329 -680h-90zM635 269q-32 -68 -57 -135t-38 -134h-83q13 68 38 134t56 130h-147v76h231v-71z" />
    <glyph glyph-name="two_fraction_seven" horiz-adv-x="698" 
d="M242 340h-221v68q0 50 22 78t53 41l34 15q20 9 27 18t7 20v3q0 27 -43 27q-18 0 -36.5 -5t-44.5 -14l-19 71q29 13 54 18t49 5q65 0 92 -29t27 -70v-9q0 -34 -18.5 -57t-57.5 -40l-34 -15q-17 -7 -24 -18.5t-9 -29.5h142v-77zM469 680h90l-329 -680h-90zM684 269
q-32 -68 -57 -135t-38 -134h-83q13 68 38 134t56 130h-147v76h231v-71z" />
    <glyph glyph-name="three_fraction_seven" horiz-adv-x="679" 
d="M243 433q0 -40 -28.5 -69t-95.5 -29q-25 0 -51.5 5t-52.5 16l20 70q23 -8 42.5 -11.5t37.5 -3.5q49 0 49 29v7q0 14 -11 23.5t-32 9.5h-51v64h51q40 0 40 30v7q0 29 -46 29q-15 0 -32.5 -3.5t-40.5 -11.5l-22 70q28 11 51.5 15.5t45.5 4.5q67 0 95 -28t28 -68v-7
q0 -24 -13 -41.5t-35 -28.5q23 -10 37 -28.5t14 -43.5v-7zM450 680h90l-329 -680h-90zM665 269q-32 -68 -57 -135t-38 -134h-83q13 68 38 134t56 130h-147v76h231v-71z" />
    <glyph glyph-name="four_fraction_seven" horiz-adv-x="703" 
d="M268 407h-34v-67h-73v67h-148v64q35 53 65 105t49 104h85q-19 -51 -48 -101.5t-65 -102.5h62v46h73v-46h34v-69zM474 680h90l-329 -680h-90zM689 269q-32 -68 -57 -135t-38 -134h-83q13 68 38 134t56 130h-147v76h231v-71z" />
    <glyph glyph-name="five_fraction_seven" horiz-adv-x="680" 
d="M36 516l10 164h191v-69h-126l-3 -58q15 3 33 3q52 0 81.5 -25t29.5 -74v-14q0 -44 -28.5 -76t-96.5 -32q-25 0 -51 4.5t-56 17.5l21 71q25 -10 45.5 -13.5t38.5 -3.5q47 0 47 33v14q0 14 -10.5 23t-33.5 9q-25 0 -53 -11zM451 680h90l-329 -680h-90zM666 269
q-32 -68 -57 -135t-38 -134h-83q13 68 38 134t56 130h-147v76h231v-71z" />
    <glyph glyph-name="six_fraction_seven" horiz-adv-x="707" 
d="M278 440q0 -46 -31 -75.5t-86 -29.5q-60 0 -93.5 37.5t-33.5 103.5v70q0 71 35 105t98 34q22 0 46 -4t53 -15l-21 -71q-22 10 -41 13t-35 3q-27 0 -43 -15t-16 -50v-14q32 27 75 27q41 0 67 -27t26 -77v-15zM161 490q-27 0 -51 -21q3 -61 51 -61q39 0 39 32v15
q0 16 -10 25.5t-29 9.5zM478 680h90l-329 -680h-90zM693 269q-32 -68 -57 -135t-38 -134h-83q13 68 38 134t56 130h-147v76h231v-71z" />
    <glyph glyph-name="uni2151" horiz-adv-x="659" 
d="M17 632l96 48h60v-340h-79v252l-47 -23zM420 680h90l-329 -680h-90zM625 134q0 -70 -35 -104.5t-98 -34.5q-22 0 -46 4t-53 15l21 71q23 -10 41.5 -13t34.5 -3q27 0 43 15t16 50v14q-31 -27 -75 -27q-40 0 -66.5 27.5t-26.5 76.5v15q0 46 31 75.5t86 29.5
q60 0 93.5 -37.5t33.5 -103.5v-70zM459 225q0 -16 10 -25.5t29 -9.5q27 0 51 21q-3 61 -51 61q-39 0 -39 -32v-15z" />
    <glyph glyph-name="two_fraction_nine" horiz-adv-x="708" 
d="M242 340h-221v68q0 50 22 78t53 41l34 15q20 9 27 18t7 20v3q0 27 -43 27q-18 0 -36.5 -5t-44.5 -14l-19 71q29 13 54 18t49 5q65 0 92 -29t27 -70v-9q0 -34 -18.5 -57t-57.5 -40l-34 -15q-17 -7 -24 -18.5t-9 -29.5h142v-77zM469 680h90l-329 -680h-90zM674 134
q0 -70 -35 -104.5t-98 -34.5q-22 0 -46 4t-53 15l21 71q23 -10 41.5 -13t34.5 -3q27 0 43 15t16 50v14q-31 -27 -75 -27q-40 0 -66.5 27.5t-26.5 76.5v15q0 46 31 75.5t86 29.5q60 0 93.5 -37.5t33.5 -103.5v-70zM508 225q0 -16 10 -25.5t29 -9.5q27 0 51 21q-3 61 -51 61
q-39 0 -39 -32v-15z" />
    <glyph glyph-name="four_fraction_nine" horiz-adv-x="713" 
d="M268 407h-34v-67h-73v67h-148v64q35 53 65 105t49 104h85q-19 -51 -48 -101.5t-65 -102.5h62v46h73v-46h34v-69zM474 680h90l-329 -680h-90zM679 134q0 -70 -35 -104.5t-98 -34.5q-22 0 -46 4t-53 15l21 71q23 -10 41.5 -13t34.5 -3q27 0 43 15t16 50v14q-31 -27 -75 -27
q-40 0 -66.5 27.5t-26.5 76.5v15q0 46 31 75.5t86 29.5q60 0 93.5 -37.5t33.5 -103.5v-70zM513 225q0 -16 10 -25.5t29 -9.5q27 0 51 21q-3 61 -51 61q-39 0 -39 -32v-15z" />
    <glyph glyph-name="five_fraction_nine" horiz-adv-x="690" 
d="M36 516l10 164h191v-69h-126l-3 -58q15 3 33 3q52 0 81.5 -25t29.5 -74v-14q0 -44 -28.5 -76t-96.5 -32q-25 0 -51 4.5t-56 17.5l21 71q25 -10 45.5 -13.5t38.5 -3.5q47 0 47 33v14q0 14 -10.5 23t-33.5 9q-25 0 -53 -11zM451 680h90l-329 -680h-90zM656 134
q0 -70 -35 -104.5t-98 -34.5q-22 0 -46 4t-53 15l21 71q23 -10 41.5 -13t34.5 -3q27 0 43 15t16 50v14q-31 -27 -75 -27q-40 0 -66.5 27.5t-26.5 76.5v15q0 46 31 75.5t86 29.5q60 0 93.5 -37.5t33.5 -103.5v-70zM490 225q0 -16 10 -25.5t29 -9.5q27 0 51 21q-3 61 -51 61
q-39 0 -39 -32v-15z" />
    <glyph glyph-name="seven_fraction_nine" horiz-adv-x="652" 
d="M239 609q-32 -68 -57 -135t-38 -134h-83q13 68 38 134t56 130h-147v76h231v-71zM413 680h90l-329 -680h-90zM618 134q0 -70 -35 -104.5t-98 -34.5q-22 0 -46 4t-53 15l21 71q23 -10 41.5 -13t34.5 -3q27 0 43 15t16 50v14q-31 -27 -75 -27q-40 0 -66.5 27.5t-26.5 76.5
v15q0 46 31 75.5t86 29.5q60 0 93.5 -37.5t33.5 -103.5v-70zM452 225q0 -16 10 -25.5t29 -9.5q27 0 51 21q-3 61 -51 61q-39 0 -39 -32v-15z" />
    <glyph glyph-name="eight_fraction_nine" horiz-adv-x="717" 
d="M274 437q0 -43 -31 -72.5t-94 -29.5q-64 0 -92 28t-28 65q0 43 50 76q-21 14 -32.5 34.5t-11.5 48.5q0 41 29 69.5t86 28.5q58 0 87.5 -26.5t29.5 -65.5q0 -40 -44 -70q51 -28 51 -86zM145 552l25 -8q11 11 15.5 21.5t4.5 20.5q0 29 -39 29t-39 -29q0 -23 33 -34z
M106 437q0 -14 12 -23t34 -9q45 0 45 31q0 11 -8.5 20.5t-28.5 15.5l-27 8q-27 -22 -27 -43zM478 680h90l-329 -680h-90zM683 134q0 -70 -35 -104.5t-98 -34.5q-22 0 -46 4t-53 15l21 71q23 -10 41.5 -13t34.5 -3q27 0 43 15t16 50v14q-31 -27 -75 -27q-40 0 -66.5 27.5
t-26.5 76.5v15q0 46 31 75.5t86 29.5q60 0 93.5 -37.5t33.5 -103.5v-70zM517 225q0 -16 10 -25.5t29 -9.5q27 0 51 21q-3 61 -51 61q-39 0 -39 -32v-15z" />
    <glyph glyph-name="exclamdown.case" horiz-adv-x="281" 
d="M80 680h121v-119h-121v119zM95 481h90l12 -261v-220h-115v220z" />
    <glyph glyph-name="questiondown.case" horiz-adv-x="454" 
d="M183 680h121v-119h-121v119zM251 97q34 0 71 9t86 29l37 -99q-57 -25 -107.5 -35.5t-94.5 -10.5q-77 0 -123.5 23t-67.5 62.5t-21 90.5v18q0 53 16 91.5t56 74.5l36 33q33 30 39 48.5t6 40.5v9h120v-18q0 -38 -12 -70t-57 -73l-37 -34q-29 -27 -39 -46.5t-10 -45.5v-18
q0 -34 23 -56.5t79 -22.5z" />
    <glyph glyph-name="parenleft.case" horiz-adv-x="333" 
d="M49 359q0 116 50.5 225t152.5 208l80 -75q-85 -87 -125 -173.5t-40 -184.5v-37q0 -97 40 -184t125 -174l-80 -75q-102 99 -152.5 208t-50.5 225v37z" />
    <glyph glyph-name="parenright.case" horiz-adv-x="333" 
d="M284 321q0 -116 -50.5 -225t-152.5 -208l-80 75q86 87 125.5 174t39.5 184v37q0 98 -39.5 184.5t-125.5 173.5l80 75q102 -99 152.5 -208t50.5 -225v-37z" />
    <glyph glyph-name="braceleft.case" horiz-adv-x="381" 
d="M380 -2v-100h-89q-108 0 -149 55.5t-19 149.5l20 86q11 45 -1.5 73t-68.5 28h-53v100h53q56 0 68.5 28t1.5 73l-20 86q-22 94 19 149.5t149 55.5h89v-100h-89q-37 0 -50 -24t-4 -62l20 -86q16 -69 -3.5 -112t-69.5 -58q50 -15 70 -57.5t3 -112.5l-20 -86q-9 -37 4 -61.5
t50 -24.5h89z" />
    <glyph glyph-name="braceright.case" horiz-adv-x="381" 
d="M258 103q22 -94 -19 -149.5t-149 -55.5h-89v100h89q37 0 50 24.5t4 61.5l-20 86q-16 69 3.5 112t69.5 58q-50 15 -69.5 57.5t-3.5 112.5l20 86q9 38 -4 62t-50 24h-89v100h89q108 0 149 -55.5t19 -149.5l-20 -86q-10 -45 2 -73t68 -28h53v-100h-53q-56 0 -68 -28t-2 -73z
" />
    <glyph glyph-name="bracketleft.case" horiz-adv-x="350" 
d="M349 -2v-100h-255v883h255v-100h-140v-683h140z" />
    <glyph glyph-name="bracketright.case" horiz-adv-x="350" 
d="M256 781v-883h-255v100h140v683h-140v100h255z" />
    <glyph glyph-name="hyphen.case" horiz-adv-x="404" 
d="M50 285v100h304v-100h-304z" />
    <glyph glyph-name="endash.case" horiz-adv-x="604" 
d="M50 285v100h504v-100h-504z" />
    <glyph glyph-name="emdash.case" horiz-adv-x="804" 
d="M50 285v100h704v-100h-704z" />
    <glyph glyph-name="guillemotleft.case" horiz-adv-x="711" 
d="M338 224v-120l-296 195v77l296 192v-116l-184 -113zM658 224v-120l-296 195v77l296 192v-116l-184 -113z" />
    <glyph glyph-name="guillemotright.case" horiz-adv-x="711" 
d="M669 296l-296 -192v116l184 113l-184 115v120l296 -195v-77zM349 296l-296 -192v116l184 113l-184 115v120l296 -195v-77z" />
    <glyph glyph-name="guilsinglleft.case" horiz-adv-x="391" 
d="M338 224v-120l-296 195v77l296 192v-116l-184 -113z" />
    <glyph glyph-name="guilsinglright.case" horiz-adv-x="391" 
d="M349 296l-296 -192v116l184 113l-184 115v120l296 -195v-77z" />
    <glyph glyph-name="at.case" horiz-adv-x="945" 
d="M728 -77q-58 -26 -126 -41t-136 -15q-133 0 -228.5 54t-147 151.5t-51.5 226.5q0 102 32 190t92 153t144 101.5t188 36.5q93 0 170 -30t132.5 -84t85.5 -127t30 -160q0 -85 -30.5 -151.5t-82.5 -104.5t-119 -38q-47 0 -79.5 19t-44.5 59q-46 -49 -84.5 -66t-74.5 -17
q-68 0 -99.5 61.5t-15.5 159.5l7 44q17 104 68.5 158t144.5 54q52 0 102 -18t95 -47l-42 -240q-6 -33 2 -54t34 -21q29 0 55.5 25t43.5 70.5t17 106.5q0 89 -39.5 158t-110 108.5t-165.5 39.5q-108 0 -187.5 -51t-122.5 -138t-43 -197q0 -103 38.5 -178.5t111 -117
t174.5 -41.5q59 0 120 14t112 39zM399 301q-10 -61 1.5 -88.5t39.5 -27.5q23 0 49.5 18.5t58.5 62.5l30 172q-18 8 -33.5 13t-31.5 5q-46 0 -72.5 -30t-34.5 -81z" />
    <glyph glyph-name="bar.case" horiz-adv-x="303" 
d="M94 816h115v-953h-115v953z" />
    <glyph glyph-name="brokenbar.case" horiz-adv-x="281" 
d="M83 816h115v-383h-115v383zM83 246h115v-383h-115v383z" />
    <glyph glyph-name="caron.alt" horiz-adv-x="500" 
d="M288 546h-77v194h113z" />
    <glyph glyph-name="revcommaaccent" horiz-adv-x="500" 
d="M263 758l73 -17l-26 -162h-120z" />
    </font>
</defs>
</svg>
